osu file format v14

[General]
AudioFilename: ehh.mp3
AudioLeadIn: 1500
PreviewTime: 16941
Countdown: 0
SampleSet: Soft
StackLeniency: 0.7
Mode: 0
LetterboxInBreaks: 0
WidescreenStoryboard: 1

[Editor]
Bookmarks: -9,199502,226819,270729
DistanceSpacing: 0.8
BeatDivisor: 4
GridSize: 4
TimelineZoom: 2.1

[Metadata]
Title:enn
TitleUnicode:enn~淵~
Artist:Chata
ArtistUnicode:茶太
Creator:EvilElvis
Version:Starry Sky of Small Desires
Source:東方神霊廟 ~ Ten Desires.
Tags:東方project Touhou yf_bmp doujin comiket 81 c81 abyss Seikatu サリー Sally NSY shuriken サドマゾヒズム Sadomasochism 小さな欲望の星空 東方神霊廟 ZUN Chiisana Yokubou no Hoshizora 上海アリス幻樂団 Team Shanghai Alice
BeatmapID:882812
BeatmapSetID:406217

[Difficulty]
HPDrainRate:7
CircleSize:4
OverallDifficulty:9
ApproachRate:9
SliderMultiplier:1.7
SliderTickRate:1

[Events]
//Background and Video events
0,0,"chata.jpg",0,0
//Break Periods
//Storyboard Layer 0 (Background)
//Storyboard Layer 1 (Fail)
//Storyboard Layer 2 (Pass)
//Storyboard Layer 3 (Foreground)
//Storyboard Sound Samples

[TimingPoints]
478,243.90243902439,4,2,1,20,1,0
478,-500,4,2,1,20,0,0
538,-500,4,2,1,5,0,0
16941,-500,4,2,1,8,0,0
38770,-100,4,2,1,5,0,0
38892,-100,4,2,1,30,0,0
39502,-100,4,2,1,50,0,1
55112,-125,4,2,1,50,0,0
60477,-125,4,2,1,30,0,0
60721,-125,4,2,1,35,0,0
60965,-125,4,2,1,40,0,0
61209,-125,4,2,1,45,0,0
61697,-125,4,2,1,40,0,0
61941,-125,4,2,1,35,0,0
62185,-125,4,2,1,30,0,0
62429,-125,4,2,1,40,0,0
62917,-125,4,2,1,70,0,0
62977,-125,4,2,1,50,0,0
63648,-125,4,2,1,40,0,0
63892,-125,4,2,1,30,0,0
69014,-125,4,2,1,35,0,0
69258,-125,4,2,1,40,0,0
69502,-125,4,2,1,45,0,0
69990,-125,4,2,1,40,0,0
70477,-125,4,2,1,30,0,0
70721,-125,4,2,1,70,0,0
70782,-125,4,2,1,50,0,0
76087,-125,4,2,1,30,0,0
76331,-125,4,2,1,35,0,0
76575,-125,4,2,1,40,0,0
76819,-125,4,2,1,45,0,0
77307,-125,4,2,1,40,0,0
77551,-125,4,2,1,35,0,0
78038,-125,4,2,1,40,0,0
78526,-125,4,2,1,70,0,0
78587,-125,4,2,1,50,0,0
79258,-125,4,2,1,40,0,0
79502,-125,4,2,1,30,0,0
84624,-125,4,2,1,35,0,0
84868,-125,4,2,1,40,0,0
85112,-125,4,2,1,45,0,0
85356,-125,4,2,1,50,0,0
85843,-125,4,2,1,40,0,0
86087,-125,4,2,1,50,0,0
86331,-125,4,2,1,50,0,1
87063,-200,4,2,1,50,0,0
87551,-200,4,2,1,30,0,0
90234,-125,4,2,1,50,0,1
90965,-200,4,2,1,50,0,0
91697,-200,4,2,1,30,0,0
94136,-125,4,2,1,50,0,1
94868,-200,4,2,1,50,0,0
96087,-200,4,2,1,30,0,0
97307,-125,4,2,1,50,0,1
98038,-200,4,2,1,50,0,0
99014,-200,4,2,1,40,0,0
99990,-200,4,2,1,50,0,0
100356,-200,4,2,1,40,0,0
100721,-200,4,2,1,30,0,0
100965,-200,4,2,1,40,0,0
101209,-200,4,2,1,50,0,0
101453,-200,4,2,1,40,0,0
101941,-100,4,2,1,50,0,1
113648,-100,4,2,1,50,0,0
117551,-100,4,2,1,50,0,1
131209,-125,4,2,1,50,0,0
132916,-100,4,2,1,50,0,0
133160,-100,4,2,1,50,0,1
140965,-125,4,2,1,50,0,0
146331,-125,4,2,1,30,0,0
146575,-125,4,2,1,35,0,0
146819,-125,4,2,1,40,0,0
147063,-125,4,2,1,45,0,0
147551,-125,4,2,1,40,0,0
147795,-125,4,2,1,35,0,0
148039,-125,4,2,1,30,0,0
148283,-125,4,2,1,40,0,0
148771,-125,4,2,1,70,0,0
148831,-125,4,2,1,50,0,0
149502,-125,4,2,1,40,0,0
149746,-125,4,2,1,30,0,0
154868,-125,4,2,1,35,0,0
155112,-125,4,2,1,40,0,0
155356,-125,4,2,1,45,0,0
155844,-125,4,2,1,40,0,0
156331,-125,4,2,1,30,0,0
156575,-125,4,2,1,50,0,1
157307,-200,4,2,1,50,0,0
157795,-200,4,2,1,30,0,0
160477,-125,4,2,1,50,0,1
161209,-200,4,2,1,50,0,0
161941,-200,4,2,1,30,0,0
164380,-125,4,2,1,50,0,1
165112,-200,4,2,1,50,0,0
166331,-200,4,2,1,30,0,0
167551,-125,4,2,1,50,0,1
168282,-200,4,2,1,50,0,0
169258,-200,4,2,1,40,0,0
170234,-200,4,2,1,50,0,0
170600,-200,4,2,1,40,0,0
170965,-200,4,2,1,30,0,0
171209,-200,4,2,1,40,0,0
171453,-200,4,2,1,50,0,0
171697,-200,4,2,1,40,0,0
172185,-100,4,2,1,50,0,1
183892,-100,4,2,1,50,0,0
187795,-100,4,2,1,50,0,1
199502,-100,4,2,1,50,0,0
226819,-200,4,2,1,50,0,0
228160,-125,4,2,1,50,0,1
230721,-125,4,2,1,80,0,0
231749,243.90243902439,4,2,1,20,1,0
231751,-500,4,2,1,20,0,0
241566,-500,4,2,1,10,0,0
242480,-500,4,2,1,5,0,0
242925,243.90243902439,4,2,1,30,1,0
243412,243.90243902439,4,2,1,50,1,1
255119,-100,4,2,1,50,0,0
259021,-100,4,2,1,50,0,1
262924,-200,4,2,1,50,0,1
266216,-200,4,2,1,50,0,0
266338,-100,4,2,1,50,0,0
266826,-100,4,2,1,50,0,1
268777,-200,4,2,1,50,0,0
270729,-100,4,2,1,50,0,1
286338,-500,4,2,1,50,0,0
286399,-500,4,2,1,15,0,0
290241,-500,4,2,1,20,0,0
290302,-500,4,2,1,15,0,0
294143,-500,4,2,1,20,0,0
294265,-500,4,2,1,15,0,0
298046,-500,4,2,1,20,0,0
298107,-500,4,2,1,15,0,0
299997,-500,4,2,3,20,0,0
300058,-500,4,2,1,15,0,0
301948,-500,4,2,1,30,0,0

[Colours]
Combo1 : 60,191,255
Combo2 : 238,238,238
Combo3 : 98,98,98
Combo4 : 255,40,56
Combo5 : 255,9,132
Combo6 : 40,255,148
Combo7 : 163,255,70
Combo8 : 0,126,253

[HitObjects]
69,175,478,5,4,0:3:0:0:
69,175,721,1,0,0:0:0:0:
137,209,965,2,0,B|156:205|174:206,1,34,0|0,0:0|0:0,0:0:0:0:
243,184,1453,1,0,0:0:0:0:
243,184,1697,2,0,B|235:221|243:257,1,68,0|0,0:0|0:0,0:0:0:0:
241,251,2673,5,0,0:0:0:0:
310,285,2917,2,0,L|348:282,1,34,0|0,0:0|0:0,0:0:0:0:
410,249,3404,1,0,0:0:0:0:
410,249,3648,1,0,0:0:0:0:
465,197,3892,1,0,0:0:0:0:
456,126,4136,1,0,0:0:0:0:
456,126,4624,101,0,0:0:0:0:
401,72,4868,2,0,L|361:78,1,34,0|0,0:0|0:0,0:0:0:0:
304,39,5356,1,0,0:0:0:0:
304,39,5843,2,0,L|266:45,1,34,0|0,0:0|0:0,0:0:0:0:
270,44,6575,5,0,0:0:0:0:
202,68,6819,1,0,0:0:0:0:
130,51,7063,1,0,0:0:0:0:
56,42,7307,1,0,0:0:0:0:
56,42,7795,2,0,B|53:59|55:76,1,34,0|0,0:0|0:0,0:0:0:0:
54,75,8526,101,0,0:0:0:0:
24,146,8770,1,0,0:0:0:0:
88,188,9014,1,0,0:0:0:0:
126,120,9258,1,0,0:0:0:0:
126,120,9502,2,0,B|156:104|190:101,1,68,0|0,0:0|0:0,0:0:0:0:
190,100,10477,5,0,0:0:0:0:
266,93,10721,1,0,0:0:0:0:
340,118,10965,1,0,0:0:0:0:
340,118,11209,2,0,L|336:191,1,68,0|0,0:0|0:0,0:0:0:0:
275,230,11941,1,0,0:0:0:0:
275,230,12429,101,0,0:0:0:0:
236,296,12673,1,0,0:0:0:0:
299,343,12917,1,0,0:0:0:0:
343,279,13160,1,0,0:0:0:0:
343,279,13648,2,0,B|363:275|383:273,1,34,0|0,0:0|0:0,0:0:0:0:
376,273,14380,5,0,0:0:0:0:
438,228,14624,1,0,0:0:0:0:
388,179,14868,1,0,0:0:0:0:
388,179,15112,2,0,L|353:185,1,34,0|0,0:0|0:0,0:0:0:0:
284,158,15599,1,0,0:0:0:0:
237,222,15843,1,0,0:0:0:0:
237,222,16331,101,0,0:0:0:0:
170,262,16575,1,0,0:0:0:0:
96,235,16819,1,0,0:0:0:0:
19,226,17063,2,0,B|17:244|19:261,1,34,0|0,0:0|0:0,0:0:0:0:
5,331,17551,1,0,0:0:0:0:
5,331,17795,1,0,0:0:0:0:
5,331,18282,5,0,0:0:0:0:
79,351,18526,2,0,L|115:348,1,34,0|0,0:0|0:0,0:0:0:0:
180,306,19014,2,0,B|178:270|174:234,1,68,0|0,0:0|0:0,0:0:0:0:
227,190,19746,1,0,0:0:0:0:
227,190,20234,101,0,0:0:0:0:
274,128,20477,2,0,B|293:127|310:124,1,34,0|0,0:0|0:0,0:0:0:0:
372,85,20965,2,0,B|406:91|439:86,1,68,0|0,0:0|0:0,0:0:0:0:
498,138,21697,1,0,0:0:0:0:
498,138,22185,5,0,0:0:0:0:
437,186,22429,1,0,0:0:0:0:
363,190,22673,1,0,0:0:0:0:
297,158,22917,1,0,0:0:0:0:
225,147,23160,1,0,0:0:0:0:
163,184,23404,2,0,B|162:201|168:217,1,34,0|0,0:0|0:0,0:0:0:0:
168,217,24136,101,0,0:0:0:0:
236,251,24380,2,0,L|231:285,1,34,0|0,0:0|0:0,0:0:0:0:
188,350,24868,2,0,B|162:353|138:349|116:340,1,68,0|0,0:0|0:0,0:0:0:0:
84,279,25599,1,0,0:0:0:0:
84,279,26087,5,0,0:0:0:0:
70,202,26331,2,0,L|76:164,1,34,0|0,0:0|0:0,0:0:0:0:
145,142,26819,2,0,B|168:153|192:156|215:153,1,68,0|0,0:0|0:0,0:0:0:0:
281,120,27551,1,0,0:0:0:0:
281,120,28038,101,0,0:0:0:0:
278,192,28282,1,0,0:0:0:0:
289,264,28526,1,0,0:0:0:0:
295,336,28770,1,0,0:0:0:0:
295,336,29258,5,0,0:0:0:0:
366,354,29502,2,0,L|436:359,1,68,0|0,0:0|0:0,0:0:0:0:
480,303,30234,2,0,B|478:286|479:269,1,34,0|0,0:0|0:0,0:0:0:0:
465,184,30721,102,0,B|477:49,1,136,0|0,0:0|0:0,0:0:0:0:
256,192,32551,12,0,38770,2:0:0:0:
319,194,38892,85,0,1:0:0:0:
319,194,38973,1,0,1:0:0:0:
319,194,39055,1,0,1:0:0:0:
319,194,39136,1,0,1:0:0:0:
93,282,39502,54,0,B|124:290|156:286|183:274,1,85,6|0,1:0|0:0,0:0:0:0:
176,106,39746,2,0,B|148:95|119:94|92:102,1,85,10|0,1:0|0:3,0:0:0:0:
137,195,39990,2,0,B|222:183|215:215|309:198,1,170,2|10,1:0|1:0,0:0:0:0:
491,316,40356,6,0,B|457:354|402:361|358:334|340:294,1,170,2|2,1:0|1:0,0:0:0:0:
210,322,40721,2,0,L|111:333,1,85,10|0,1:0|0:0,0:0:0:0:
240,247,40965,2,0,B|243:203|243:203|228:144,1,85,2|0,1:0|0:0,0:0:0:0:
165,13,41209,2,0,B|154:56|154:56|156:96,1,85,10|0,1:0|0:0,0:0:0:0:
415,181,41453,102,0,B|417:127|381:81|329:67|284:82,1,170,2|10,1:0|1:0,0:0:0:0:
242,28,41819,1,0,0:0:0:0:
205,231,41941,2,0,B|199:285|217:335,1,85,2|0,1:0|1:0,0:0:0:0:
369,358,42185,1,10,1:0:0:0:
417,301,42307,2,0,L|507:295,1,85,2|0,1:0|0:0,0:0:0:0:
331,192,42551,5,2,1:0:0:0:
270,142,42673,2,0,L|184:149,1,85,10|0,1:0|0:0,0:0:0:0:
249,314,42917,102,0,B|258:277|255:240|242:207,1,85,2|0,1:0|0:0,0:0:0:0:
27,92,43160,2,0,B|19:121|19:150|27:177,1,85,10|0,1:0|0:0,0:0:0:0:
190,45,43404,6,0,L|291:35,1,85,6|0,1:0|0:0,0:0:0:0:
456,101,43648,2,0,L|354:98,1,85,8|0,1:0|0:0,0:0:0:0:
488,187,43892,2,0,B|425:188|379:245|390:306,1,170,2|8,1:0|1:0,0:0:0:0:
169,188,44258,102,0,B|266:205|244:161|346:178,1,170,2|0,1:0|0:0,0:0:0:0:
198,108,44624,2,0,B|154:103|154:103|96:114,1,85,10|0,1:0|0:0,0:0:0:0:
123,273,44868,2,0,B|163:280|163:280|210:271,1,85,2|0,1:0|0:0,0:0:0:0:
312,348,45112,2,0,L|303:256,1,85,8|0,1:0|0:0,0:0:0:0:
300,15,45356,6,0,L|292:104,1,85,4|0,1:2|0:0,0:0:0:0:
370,208,45599,2,0,B|340:188|305:181|272:186,1,85,8|0,1:3|0:0,0:0:0:0:
173,346,45843,2,0,B|191:284|258:251|317:271,1,170,4|8,1:2|1:3,0:0:0:0:
396,325,46209,1,8,1:3:0:0:
490,200,46331,101,4,1:2:0:0:
368,104,46453,1,8,1:0:0:0:
397,194,46575,1,8,1:3:0:0:
463,111,46697,1,0,0:2:0:0:
198,40,46819,5,8,1:0:0:0:
246,191,46941,1,8,1:0:0:0:
129,352,47063,101,4,1:2:0:0:
167,231,47185,1,8,1:3:0:0:
4,230,47307,6,0,B|38:246|76:242|106:225,1,85,6|0,1:0|0:0,0:0:0:0:
293,361,47551,2,0,B|265:336|254:300|259:266,1,85,10|0,1:0|0:0,0:0:0:0:
225,139,47795,2,0,B|239:71|303:28|369:37,1,170,2|10,1:0|1:0,0:0:0:0:
496,187,48160,102,0,B|399:172|418:215|304:189,1,170,2|2,1:0|1:0,0:0:0:0:
167,226,48526,2,0,B|161:271|161:271|172:317,1,85,10|0,1:0|0:0,0:0:0:0:
351,366,48770,2,0,B|357:321|357:321|346:275,1,85,2|0,1:0|0:0,0:0:0:0:
210,131,49014,2,0,L|123:139,1,85,10|0,1:0|0:0,0:0:0:0:
237,20,49258,6,0,B|211:61|217:113|250:149|290:161,1,170,2|10,1:0|1:0,0:0:0:0:
433,285,49624,1,2,1:0:0:0:
492,182,49746,2,0,L|403:177,1,85,8|0,1:3|0:0,0:0:0:0:
230,249,49990,101,10,1:0:0:0:
315,323,50112,2,0,L|333:229,1,85,8|0,1:3|1:0,0:0:0:0:
371,81,50356,5,2,1:0:0:0:
246,91,50478,2,0,L|301:156,1,85,10|0,1:0|0:0,0:0:0:0:
123,189,50721,2,0,L|161:94,1,85,2|0,1:0|0:0,0:0:0:0:
269,249,50965,2,0,L|177:268,1,85,8|0,1:0|0:0,0:0:0:0:
239,341,51209,102,0,B|212:158,1,170,6|10,1:0|1:0,0:0:0:0:
302,62,51575,1,0,0:0:0:0:
92,28,51697,2,0,B|85:61|90:94|103:122,1,85,2|0,1:0|0:0,0:0:0:0:
23,246,51941,5,8,1:0:0:0:
142,342,52063,2,0,B|149:309|144:276|131:248,1,85,2|0,1:0|0:0,0:0:0:0:
291,166,52307,1,2,1:0:0:0:
201,103,52429,2,0,B|190:131|188:160|193:187,1,85,10|0,1:0|0:0,0:0:0:0:
391,338,52673,101,2,1:0:0:0:
481,308,52795,1,0,0:0:0:0:
447,209,52917,1,8,1:0:0:0:
354,238,53038,1,0,0:0:0:0:
239,341,53160,6,0,B|281:324|324:311,1,85,4|0,1:2|0:0,0:0:0:0:
394,154,53404,2,0,B|373:106|360:56,1,85,8|0,1:3|0:0,0:0:0:0:
281,193,53648,2,0,L|447:284,1,170,4|8,1:2|1:3,0:0:0:0:
512,317,54014,1,8,1:3:0:0:
394,357,54136,101,4,1:2:0:0:
471,198,54258,1,8,1:0:0:0:
400,350,54380,5,0,0:0:0:0:
464,207,54502,1,8,1:3:0:0:
378,164,54624,101,8,1:0:0:0:
355,55,54746,1,8,1:0:0:0:
469,122,54868,1,4,1:2:0:0:
450,16,54990,1,8,1:3:0:0:
286,134,55112,22,0,B|232:150|212:122|146:134,1,136,4|2,1:0|1:3,0:0:0:0:
78,66,55478,1,0,0:3:0:0:
23,144,55599,2,0,B|23:185|30:224,1,68,0|0,0:3|1:0,0:0:0:0:
123,268,55843,6,0,L|191:258,1,68,2|0,1:3|0:0,0:0:0:0:
278,311,56087,2,0,L|294:387,1,68,0|0,1:0|0:0,0:0:0:0:
205,338,56331,2,0,L|283:210,1,136,2|0,1:3|0:0,0:0:0:0:
341,147,56697,1,0,1:2:0:0:
227,56,56819,102,0,L|263:126,1,68,2|0,1:3|0:0,0:0:0:0:
449,245,57063,2,0,L|364:222,1,68,0|0,1:0|0:0,0:0:0:0:
335,38,57307,2,0,B|386:30|433:64|443:113,1,136,2|2,1:3|0:0,0:0:0:0:
275,221,57673,5,2,1:2:0:0:
201,251,57795,2,0,B|191:220|193:188|203:160,1,68,2|0,1:3|0:0,0:0:0:0:
363,269,58038,2,0,B|335:316|275:330|230:304,1,136,0|2,1:0|1:3,0:0:0:0:
121,234,58404,1,0,0:0:0:0:
100,160,58526,2,0,B|93:123|101:86,1,68,0|0,0:0|1:0,0:0:0:0:
203,33,58770,102,0,L|281:35,1,68,2|0,1:3|0:0,0:0:0:0:
419,75,59014,2,0,L|413:231,1,136,0|2,1:0|1:3,0:0:0:0:
255,296,59380,1,0,0:0:0:0:
332,347,59502,2,0,B|340:313|338:278|328:248,1,68,2|2,0:0|1:2,0:0:0:0:
177,279,59746,2,0,B|170:304|172:329|181:351,1,68,2|0,1:3|0:0,0:0:0:0:
253,207,59990,2,0,B|205:240|144:240|98:213,1,136,0|2,1:0|1:3,0:0:0:0:
28,149,60356,5,0,0:0:0:0:
75,82,60478,2,0,L|155:89,1,68,8|0,0:3|0:0,0:0:0:0:
226,27,60721,2,0,L|221:112,1,68,10|0,1:3|0:0,0:0:0:0:
421,204,60965,102,0,B|381:192|340:199,1,68,8|0,1:3|0:0,0:0:0:0:
181,235,61209,1,10,1:3:0:0:
281,323,61331,1,8,1:3:0:0:
297,127,61453,2,0,B|303:80|288:36,1,68,8|0,1:3|0:0,0:0:0:0:
142,36,61697,6,0,L|55:40,1,68,10|0,1:3|0:0,0:0:0:0:
160,167,61941,2,0,L|192:97,1,68,8|0,1:3|0:0,0:0:0:0:
16,117,62185,1,10,1:3:0:0:
76,201,62307,1,0,1:0:0:0:
221,25,62429,2,0,B|260:19|298:21,1,68,8|0,1:3|0:0,0:0:0:0:
384,52,62673,1,10,1:3:0:0:
455,135,62795,1,8,1:3:0:0:
455,135,62856,1,8,1:3:0:0:
455,135,62917,102,0,B|440:196|451:258,1,102,4|0,1:2|0:0,0:0:0:0:
447,236,63160,2,0,B|405:234|365:240,1,68,8|0,1:2|0:0,0:0:0:0:
277,172,63404,2,0,L|159:170,1,102,0|0,1:0|0:0,0:0:0:0:
175,170,63648,6,0,L|182:252,1,68,8|0,1:2|0:0,0:0:0:0:
75,332,63892,2,0,L|66:194,1,136,0|8,1:0|1:0,0:0:0:0:
13,110,64258,1,8,1:0:0:0:
85,34,64380,2,0,B|123:26|161:31,1,68,0|0,0:0|1:0,0:0:0:0:
258,85,64624,102,0,B|296:93|334:88,1,68,8|0,1:0|0:0,0:0:0:0:
483,182,64868,2,0,B|437:146|374:153|337:193,1,136,0|8,1:0|1:0,0:0:0:0:
262,261,65234,1,8,1:0:0:0:
359,331,65356,2,0,L|445:326,1,68,0|0,0:0|1:0,0:0:0:0:
272,167,65599,6,0,L|267:94,1,68,8|0,1:0|0:0,0:0:0:0:
298,22,65843,2,0,B|293:65|259:98|216:104|181:89,1,136,0|8,1:0|1:0,0:0:0:0:
113,218,66209,1,8,1:0:0:0:
30,117,66331,2,0,B|65:130|102:131,1,68,0|8,0:0|1:0,0:0:0:0:
207,220,66575,2,0,B|196:260|202:300,1,68,8|0,1:0|0:0,0:0:0:0:
70,305,66819,102,0,L|151:173,1,136,4|8,1:0|1:0,0:0:0:0:
287,151,67185,1,0,0:0:0:0:
232,30,67307,2,0,B|188:12|141:15,1,68,0|8,0:0|1:0,0:0:0:0:
34,90,67551,6,0,L|112:78,1,68,8|0,1:0|0:0,0:0:0:0:
213,116,67795,2,0,L|255:258,1,136,0|8,1:0|1:0,0:0:0:0:
291,347,68160,1,8,1:0:0:0:
393,318,68282,2,0,L|470:297,1,68,0|0,0:0|1:0,0:0:0:0:
494,178,68526,2,0,L|469:99,1,68,8|0,1:0|1:0,0:0:0:0:
313,227,68770,102,0,B|343:228|371:218|394:202,1,68,8|0,1:3|0:0,0:0:0:0:
270,69,69014,1,8,1:3:0:0:
247,148,69136,1,0,0:0:0:0:
400,122,69258,2,0,B|394:89|373:64|346:50,1,68,12|0,1:3|0:0,0:0:0:0:
180,187,69502,1,8,1:3:0:0:
352,304,69624,1,0,0:0:0:0:
325,169,69746,5,8,1:3:0:0:
178,257,69868,1,8,1:3:0:0:
342,343,69990,2,0,L|303:278,1,68,8|0,1:0|0:0,0:0:0:0:
207,144,70234,101,8,1:3:0:0:
232,345,70356,1,8,1:3:0:0:
390,252,70478,1,8,1:0:0:0:
233,228,70599,5,8,1:3:0:0:
233,228,70660,1,8,1:3:0:0:
233,228,70721,2,0,B|187:226|144:237,1,68,4|0,1:2|0:0,0:0:0:0:
76,117,70965,2,0,B|85:157|83:196,1,68,2|0,1:3|0:0,0:0:0:0:
237,46,71209,2,0,B|167:60|98:43,1,136,2|2,0:0|1:3,0:0:0:0:
249,127,71575,101,0,0:0:0:0:
312,177,71697,2,0,B|311:219|315:260,1,68,0|0,1:0|0:0,0:0:0:0:
152,282,71941,2,0,B|154:247|153:213,1,68,2|2,1:3|1:2,0:0:0:0:
238,293,72185,2,0,B|265:338|326:348|366:315,1,136,2|2,0:0|1:3,0:0:0:0:
485,268,72551,1,0,0:0:0:0:
487,158,72673,6,0,L|406:162,1,68,0|0,1:0|0:0,0:0:0:0:
343,91,72917,2,0,L|338:9,1,68,2|0,1:3|0:0,0:0:0:0:
250,174,73160,2,0,L|241:21,1,136,2|2,0:0|1:3,0:0:0:0:
134,133,73526,1,0,0:0:0:0:
93,45,73648,102,0,B|49:52|6:48,1,68,0|0,1:0|0:0,0:0:0:0:
91,231,73892,2,0,B|57:225|23:226,1,68,2|2,1:3|1:2,0:0:0:0:
163,143,74136,2,0,B|78:135|-6:136,1,136,2|2,0:2|1:3,0:0:0:0:
175,225,74502,5,0,0:0:0:0:
251,245,74624,2,0,B|286:249|319:242,1,68,0|0,1:0|0:0,0:0:0:0:
313,77,74868,2,0,B|279:70|245:74,1,68,2|0,1:3|0:0,0:0:0:0:
346,162,75112,2,0,B|391:165|427:198|437:242|423:279,1,136,2|2,0:0|1:3,0:0:0:0:
501,313,75478,1,0,0:0:0:0:
326,352,75599,102,0,L|330:278,1,68,0|0,1:0|0:0,0:0:0:0:
204,199,75843,2,0,L|279:204,1,68,2|0,1:3|0:0,0:0:0:0:
237,40,76087,2,0,B|231:85|247:127,1,68,8|0,0:3|1:0,0:0:0:0:
403,103,76331,2,0,B|409:58|393:16,1,68,10|0,1:3|0:0,0:0:0:0:
160,75,76575,6,0,L|163:168,1,68,8|0,1:3|0:0,0:0:0:0:
42,236,76819,1,10,1:3:0:0:
164,343,76941,1,8,1:3:0:0:
296,241,77063,2,0,L|203:233,1,68,8|0,1:3|0:0,0:0:0:0:
366,312,77307,101,14,1:3:0:0:
485,257,77429,1,0,0:0:0:0:
425,142,77551,2,0,L|351:151,1,68,8|0,1:3|0:0,0:0:0:0:
163,31,77795,5,10,1:3:0:0:
53,109,77917,1,8,1:3:0:0:
151,196,78038,2,0,L|225:187,1,68,8|0,1:3|0:0,0:0:0:0:
268,272,78282,1,10,1:3:0:0:
372,154,78404,101,8,1:3:0:0:
372,154,78465,1,8,1:3:0:0:
372,154,78526,2,0,B|375:91|360:31,1,102,4|0,1:2|0:0,0:0:0:0:
364,52,78770,2,0,L|288:63,1,68,8|0,1:2|0:0,0:0:0:0:
359,236,79014,2,0,L|471:221,1,102,0|0,1:0|0:0,0:0:0:0:
460,222,79258,6,0,B|468:264|468:305,1,68,8|0,1:2|0:0,0:0:0:0:
284,365,79502,2,0,L|191:354,1,68,0|0,1:0|0:0,0:0:0:0:
273,188,79746,2,0,L|196:207,1,68,8|8,1:0|1:0,0:0:0:0:
316,112,79990,2,0,B|362:145|373:206|347:252,1,136,2|8,0:0|1:0,0:0:0:0:
237,287,80356,101,0,0:0:0:0:
158,281,80478,2,0,B|116:262|71:257,1,68,0|0,1:0|0:0,0:0:0:0:
71,111,80721,2,0,B|62:161|36:204,1,68,8|8,1:0|1:0,0:0:0:0:
162,170,80965,2,0,B|205:143|238:106|260:65,1,136,2|8,0:0|1:0,0:0:0:0:
319,170,81331,5,0,1:0:0:0:
264,225,81453,2,0,B|264:265|268:305,1,68,0|0,0:0|0:0,0:0:0:0:
363,351,81697,2,0,L|439:340,1,68,8|0,1:0|0:0,0:0:0:0:
503,195,81941,2,0,B|462:185|421:205|402:243|405:279,1,136,2|8,0:0|1:0,0:0:0:0:
211,334,82307,101,8,1:0:0:0:
288,363,82429,2,0,B|294:334|289:305|278:280,1,68,4|0,1:0|0:0,0:0:0:0:
309,116,82673,2,0,B|299:146|299:175|305:203,1,68,8|8,1:0|1:0,0:0:0:0:
68,212,82917,2,0,B|127:208|126:235|204:229,1,136,2|8,0:0|1:0,0:0:0:0:
379,201,83282,5,0,0:0:0:0:
436,137,83404,2,0,B|441:96|427:58,1,68,0|0,1:0|0:0,0:0:0:0:
215,29,83648,2,0,B|206:62|209:96,1,68,8|8,1:0|1:0,0:0:0:0:
99,191,83892,2,0,L|177:181,1,68,2|8,0:0|1:0,0:0:0:0:
333,231,84136,2,0,L|255:221,1,68,8|0,1:0|0:0,0:0:0:0:
199,359,84380,102,0,B|189:322|198:284,1,68,12|0,1:3|0:0,0:0:0:0:
27,200,84624,1,8,1:3:0:0:
163,105,84746,1,0,0:0:0:0:
226,206,84868,6,0,L|142:220,1,68,8|0,1:3|0:0,0:0:0:0:
35,107,85112,1,8,1:3:0:0:
105,273,85234,1,0,0:0:0:0:
258,129,85356,102,0,B|264:98|262:68|253:41,1,68,8|8,1:3|1:3,0:0:0:0:
375,142,85599,1,8,1:0:0:0:
432,28,85721,1,0,0:0:0:0:
330,32,85843,5,8,1:3:0:0:
321,230,85965,1,8,1:3:0:0:
488,150,86087,1,8,1:0:0:0:
390,106,86209,1,8,1:0:0:0:
228,224,86331,69,14,1:0:0:0:
407,187,86453,1,8,1:0:0:0:
395,206,86697,5,6,1:0:0:0:
244,238,86819,2,0,L|322:251,1,68,8|0,1:0|0:0,0:0:0:0:
210,314,87063,70,0,L|233:129,1,170,4|0,1:0|1:0,0:0:0:0:
243,133,87795,1,8,1:0:0:0:
252,119,88038,2,0,L|194:113,1,42.5,0|0,1:0|1:0,0:0:0:0:
160,58,88282,2,0,B|136:83|129:117|139:148,1,85,2|0,0:0|1:0,0:0:0:0:
64,152,88648,2,0,B|71:187|100:210|132:213,1,85,4|0,1:2|0:0,0:0:0:0:
114,284,89014,2,0,B|146:287|175:272|192:247,1,85,0|0,1:0|0:0,0:0:0:0:
198,237,89502,5,0,1:0:0:0:
202,220,89746,2,0,L|194:168,1,42.5,8|0,1:0|0:0,0:0:0:0:
237,27,89990,2,0,L|243:105,1,63.75,4|0,0:3|0:0,0:0:0:0:
318,106,90234,6,0,B|288:158|288:158|292:260,1,136,6|0,1:0|1:0,0:0:0:0:
466,309,90599,1,14,1:0:0:0:
466,309,90721,2,0,B|472:267|457:227,1,68,8|0,1:0|0:0,0:0:0:0:
352,331,90965,86,0,B|222:364|227:271|105:295,1,255,4|0,1:0|1:0,0:0:0:0:
106,294,91941,2,0,B|103:265|107:237,1,42.5,0|0,1:0|1:0,0:0:0:0:
162,202,92185,2,2,B|159:131|134:66,1,127.5,0|0,0:0|1:0,1:0:0:0:
85,30,92673,1,8,1:0:0:0:
352,131,92917,2,2,B|328:198|329:268,1,127.5,0|0,0:0|0:0,1:0:0:0:
368,317,93404,2,0,L|414:324,1,42.5,0|2,1:0|0:0,0:0:0:0:
478,257,93648,2,0,L|485:213,1,42.5,10|0,1:0|0:0,0:0:0:0:
449,146,93892,1,2,0:0:0:0:
449,146,94014,1,2,0:0:0:0:
257,31,94136,38,0,B|230:97|230:97|253:176,1,136,6|8,1:0|1:0,0:0:0:0:
121,263,94502,1,10,1:0:0:0:
121,263,94563,1,0,1:0:0:0:
121,263,94624,2,0,B|128:209|128:209|114:157,1,102,0|0,1:0|0:0,0:0:0:0:
126,44,94868,86,0,B|35:46|30:187|81:213|180:233|209:181|234:145|279:136|348:168,1,425,4|0,1:0|1:0,0:0:0:0:
331,161,96331,2,0,L|330:204,1,42.5,0|0,1:0|1:0,0:0:0:0:
288,266,96575,1,8,1:0:0:0:
301,287,96819,2,0,B|349:302|397:298|439:279,1,127.5,0|0,0:0|0:0,0:0:0:0:
493,186,97307,6,0,B|456:176|419:182,1,68,6|0,1:0|0:0,0:0:0:0:
168,120,97551,2,0,B|202:117|234:106,1,68,8|8,1:0|1:0,0:0:0:0:
365,33,97795,1,4,0:0:0:0:
344,15,98038,86,0,L|355:276,1,255,4|2,1:0|0:0,0:0:0:0:
354,269,99014,2,0,L|303:273,1,42.5,0|8,1:0|0:1,0:0:0:0:
39,154,99380,1,8,0:1:0:0:
39,154,99502,2,0,L|91:157,1,42.5,4|0,0:0|0:0,0:0:0:0:
142,113,99746,2,0,L|192:109,1,42.5,8|0,1:0|0:0,0:0:0:0:
301,33,99990,6,0,B|315:80|312:128|297:170,1,127.5,4|8,1:0|0:1,0:0:0:0:
195,205,100478,2,0,L|134:201,1,42.5,0|0,1:0|0:0,0:0:0:0:
64,191,100721,1,4,1:2:0:0:
68,216,100965,1,4,1:2:0:0:
72,241,101209,1,4,1:2:0:0:
77,265,101453,37,0,1:2:0:0:
109,296,101534,1,0,1:0:0:0:
152,306,101616,1,0,1:0:0:0:
196,296,101697,1,0,1:2:0:0:
231,268,101778,1,0,1:0:0:0:
275,258,101860,1,0,1:0:0:0:
319,258,101941,86,0,B|327:304|321:348,1,85,4|0,1:0|0:0,0:0:0:0:
147,221,102185,2,0,B|136:179|144:136,1,85,8|0,1:0|0:0,0:0:0:0:
50,88,102429,1,2,0:0:0:0:
134,16,102551,1,0,1:0:0:0:
242,64,102673,2,0,B|250:108|243:151,1,85,8|0,1:0|0:0,0:0:0:0:
419,121,102917,6,0,L|329:112,1,85,0|0,1:0|0:0,0:0:0:0:
173,237,103160,2,0,L|257:228,1,85,8|0,1:0|1:0,0:0:0:0:
155,338,103404,1,2,0:0:0:0:
110,159,103526,1,0,1:0:0:0:
335,192,103648,102,0,B|344:237|335:281,1,85,8|0,1:0|0:0,0:0:0:0:
236,334,103892,2,0,B|143:324|159:375|53:353,1,170,6|8,1:0|1:0,0:0:0:0:
27,239,104258,1,0,0:0:0:0:
150,173,104380,2,0,B|167:213|167:213|157:278,1,85,2|0,0:0|1:0,0:0:0:0:
71,116,104624,2,0,L|80:23,1,85,8|0,1:0|0:0,0:0:0:0:
330,42,104868,6,0,B|334:94|295:139|240:144|201:120,1,170,6|8,1:0|1:0,0:0:0:0:
366,197,105234,1,0,1:0:0:0:
276,306,105356,2,0,B|280:251|268:198,1,85,2|0,0:0|1:0,0:0:0:0:
438,261,105599,2,0,B|430:303|434:345,1,85,8|0,1:0|1:0,0:0:0:0:
203,242,105843,102,0,L|108:248,1,85,6|0,1:0|0:0,0:0:0:0:
349,168,106087,2,0,L|444:174,1,85,8|0,1:0|0:0,0:0:0:0:
256,86,106331,1,2,0:0:0:0:
276,273,106453,1,0,1:0:0:0:
379,93,106575,2,0,B|388:46|374:1,1,85,8|0,1:0|0:0,0:0:0:0:
205,24,106819,6,0,L|111:42,1,85,2|0,1:0|0:0,0:0:0:0:
201,171,107063,2,0,L|26:155,1,170,10|0,1:0|0:0,0:0:0:0:
114,261,107429,1,2,1:0:0:0:
329,207,107551,102,0,B|320:164|326:122,1,85,8|0,1:0|0:0,0:0:0:0:
234,269,107795,2,0,B|251:321|300:354|355:350|394:323,1,170,6|8,1:0|1:0,0:0:0:0:
442,176,108160,1,0,1:0:0:0:
207,152,108282,6,0,B|108:143|131:188|39:175,1,170,4|8,1:2|1:0,0:0:0:0:
219,31,108648,1,0,1:3:0:0:
348,37,108770,102,0,B|387:72|396:128|371:174|331:196,1,170,4|8,1:2|1:0,0:0:0:0:
186,260,109136,1,0,1:3:0:0:
291,369,109258,2,0,B|300:307|279:248,1,85,2|0,1:0|1:3,0:0:0:0:
229,77,109502,2,0,B|220:119|226:161,1,85,10|0,1:0|1:3,0:0:0:0:
395,246,109746,6,0,L|494:237,1,85,6|0,1:0|0:0,0:0:0:0:
396,42,109990,2,0,B|348:54|317:98|319:148|345:183,1,170,8|2,1:0|0:0,0:0:0:0:
181,231,110356,1,0,1:0:0:0:
188,148,110478,2,0,B|226:157|254:184|267:217,1,85,8|0,1:0|0:0,0:0:0:0:
184,324,110721,102,0,B|219:317|247:294|263:265,1,85,0|0,1:0|0:0,0:0:0:0:
84,166,110965,2,0,L|103:345,1,170,8|2,1:0|0:0,0:0:0:0:
197,230,111331,1,0,1:0:0:0:
308,215,111453,2,0,L|399:220,1,85,10|0,1:0|0:0,0:0:0:0:
289,64,111697,6,0,B|304:116|351:151|405:152|446:130,1,170,6|8,1:0|1:0,0:0:0:0:
332,298,112063,1,0,0:0:0:0:
476,351,112185,2,0,B|484:309|484:309|477:267,1,85,2|0,0:0|1:0,0:0:0:0:
311,212,112429,2,0,L|217:218,1,85,8|0,1:0|0:0,0:0:0:0:
26,328,112673,102,0,B|66:356|119:351|155:318|166:276,1,170,0|8,1:0|1:0,0:0:0:0:
189,140,113038,1,0,1:0:0:0:
105,72,113160,2,0,B|110:115|104:156,1,85,2|0,0:0|1:0,0:0:0:0:
262,300,113404,2,0,L|374:308,1,85,8|0,1:0|0:0,0:0:0:0:
259,190,113648,6,0,L|350:182,1,85,4|0,1:0|0:0,0:0:0:0:
248,63,113892,2,0,B|308:71|308:71|347:99|347:99|419:104,1,170,10|2,1:0|1:0,0:0:0:0:
512,99,114258,1,0,1:0:0:0:
431,201,114380,2,0,B|404:226|385:257|377:289,1,85,8|2,1:0|1:0,0:0:0:0:
180,267,114624,101,0,0:0:0:0:
314,340,114746,1,2,1:0:0:0:
315,168,114868,2,0,L|321:74,1,85,8|0,1:0|0:0,0:0:0:0:
182,140,115112,2,0,L|169:53,1,85,2|0,1:0|0:0,0:0:0:0:
33,195,115356,2,0,L|45:100,1,85,10|0,1:0|1:0,0:0:0:0:
128,307,115599,6,0,L|122:213,1,85,2|0,1:0|0:0,0:0:0:0:
238,294,115843,2,0,L|251:207,1,85,10|0,1:0|0:0,0:0:0:0:
377,332,116087,2,0,L|365:237,1,85,2|0,1:0|1:0,0:0:0:0:
482,291,116331,2,0,L|488:197,1,85,8|2,1:0|1:0,0:0:0:0:
324,22,116575,101,10,1:0:0:0:
376,171,116697,1,8,1:0:0:0:
392,93,116819,2,0,B|359:86|327:101|310:127,1,85,10|0,1:0|0:0,0:0:0:0:
266,254,117063,5,8,1:0:0:0:
474,107,117185,1,8,1:0:0:0:
234,121,117307,101,8,1:0:0:0:
476,228,117429,1,8,1:0:0:0:
370,50,117551,6,0,B|382:141|334:125|344:237,1,170,4|8,1:0|1:0,0:0:0:0:
205,322,117917,1,0,0:0:0:0:
300,373,118038,2,0,B|305:326|291:281,1,85,2|0,0:0|1:0,0:0:0:0:
176,189,118282,2,0,B|203:205|233:212|261:211,1,85,8|0,1:0|0:0,0:0:0:0:
429,191,118526,102,0,B|391:191|356:204|329:226,1,85,0|0,1:0|0:0,0:0:0:0:
378,93,118770,2,0,B|390:160|459:200|523:177,1,170,8|2,1:0|0:0,0:0:0:0:
363,304,119136,1,0,1:0:0:0:
474,369,119258,2,0,B|482:326|482:326|466:262,1,85,10|0,1:0|0:0,0:0:0:0:
314,192,119502,6,0,L|116:217,1,170,6|8,1:0|1:0,0:0:0:0:
32,148,119868,1,0,0:0:0:0:
34,304,119990,2,0,B|91:286|148:284,1,85,2|0,0:0|1:0,0:0:0:0:
174,134,120234,2,0,B|162:85|158:37,1,85,8|0,1:0|0:0,0:0:0:0:
75,44,120478,102,0,L|254:18,1,170,2|8,1:0|1:0,0:0:0:0:
359,112,120843,1,0,0:0:0:0:
267,196,120965,2,0,B|252:162|249:127|257:94,1,85,2|0,0:0|1:0,0:0:0:0:
452,19,121209,2,0,B|467:53|470:88|462:121,1,85,8|0,1:0|0:0,0:0:0:0:
502,248,121453,6,0,B|459:199|386:195|337:232,1,170,4|8,1:0|1:0,0:0:0:0:
165,258,121819,1,0,0:0:0:0:
197,150,121941,2,0,B|237:158|267:185|280:220,1,85,2|0,0:0|1:0,0:0:0:0:
51,301,122185,2,0,B|44:269|49:237|61:209,1,85,8|0,1:0|0:0,0:0:0:0:
248,332,122429,102,0,L|141:368,1,85,0|0,1:0|0:0,0:0:0:0:
123,179,122673,2,0,L|90:77,1,85,8|0,1:0|0:0,0:0:0:0:
273,75,122917,2,0,L|380:39,1,85,2|8,1:0|1:0,0:0:0:0:
398,228,123160,2,0,L|425:328,1,85,10|0,1:0|0:0,0:0:0:0:
488,141,123404,6,0,L|313:201,1,170,6|8,1:0|1:0,0:0:0:0:
87,135,123770,1,0,0:0:0:0:
65,41,123892,2,0,L|201:164,1,170,2|8,1:0|1:0,0:0:0:0:
428,184,124258,101,0,0:0:0:0:
477,114,124380,2,0,L|302:174,1,170,6|8,1:0|1:0,0:0:0:0:
172,286,124746,1,0,0:0:0:0:
268,349,124868,2,0,B|277:314|274:278|263:247,1,85,2|0,0:0|1:0,0:0:0:0:
162,129,125112,5,0,1:0:0:0:
180,267,125234,1,0,0:0:0:0:
333,202,125356,2,0,B|303:182|266:179|235:191,1,85,4|0,1:0|0:0,0:0:0:0:
0,187,125599,2,0,B|26:170|55:163|83:165,1,85,8|0,1:0|0:0,0:0:0:0:
81,341,125843,102,0,L|67:244,1,85,2|0,0:0|1:0,0:0:0:0:
268,349,126087,2,0,L|282:252,1,85,8|0,1:0|0:0,0:0:0:0:
176,212,126331,6,0,L|161:123,1,85,0|0,1:0|0:0,0:0:0:0:
356,213,126575,2,0,L|371:124,1,85,8|0,1:0|0:0,0:0:0:0:
269,97,126819,102,0,L|255:0,1,85,2|0,0:0|1:0,0:0:0:0:
456,105,127063,2,0,L|470:8,1,85,8|0,1:0|0:0,0:0:0:0:
198,225,127307,6,0,L|171:54,1,170,4|8,1:0|1:0,0:0:0:0:
91,220,127673,1,0,0:0:0:0:
19,144,127795,2,0,B|65:144|108:131,1,85,2|0,0:0|1:0,0:0:0:0:
261,29,128038,1,8,1:0:0:0:
285,175,128160,1,0,0:0:0:0:
461,121,128282,102,0,B|381:135|367:90|289:99,1,170,2|8,1:0|1:0,0:0:0:0:
158,212,128648,1,0,1:0:0:0:
251,309,128770,2,0,B|295:323|341:315,1,85,2|0,1:0|1:0,0:0:0:0:
486,235,129014,2,0,B|450:223|412:223|379:234,1,85,10|0,1:0|0:0,0:0:0:0:
225,93,129258,6,0,B|193:80|159:81|129:91,1,85,4|0,1:0|0:0,0:0:0:0:
279,171,129502,2,0,B|307:145|324:113|332:79,1,85,8|0,1:0|0:0,0:0:0:0:
192,185,129746,2,0,B|201:218|220:246|246:264,1,85,4|0,1:2|1:0,0:0:0:0:
187,359,129990,101,8,1:0:0:0:
352,224,130112,1,8,1:0:0:0:
146,119,130234,6,0,L|63:103,1,85,4|0,1:0|0:0,0:0:0:0:
295,98,130478,2,0,L|357:40,1,85,8|0,1:0|0:0,0:0:0:0:
259,266,130721,2,0,L|277:365,1,85,4|0,1:2|0:0,0:0:0:0:
151,324,130965,101,8,1:0:0:0:
371,268,131087,1,8,1:0:0:0:
141,108,131209,86,0,B|112:152|114:205|139:246,1,136,4|0,1:0|0:0,0:0:0:0:
347,184,131575,2,0,L|200:175,1,136,8|0,1:0|0:0,0:0:0:0:
286,101,131941,2,0,L|194:97,1,68,8|0,1:0|0:0,0:0:0:0:
20,235,132185,5,2,0:0:0:0:
20,235,132429,1,8,1:0:0:0:
20,235,132673,1,0,1:0:0:0:
40,226,132754,1,0,1:0:0:0:
62,224,132835,1,0,1:0:0:0:
93,198,132917,5,2,1:0:0:0:
129,224,132998,1,0,1:0:0:0:
171,238,133079,1,0,1:0:0:0:
214,251,133160,6,0,B|249:260|283:259|314:249,1,85,6|0,1:0|0:0,0:0:0:0:
477,81,133404,2,0,B|448:72|418:75|393:86,1,85,10|0,1:0|0:0,0:0:0:0:
274,13,133648,2,0,B|298:89|244:115|269:197,1,170,2|10,1:0|1:0,0:0:0:0:
478,180,134014,101,2,1:0:0:0:
511,253,134136,2,0,B|519:293|519:293|508:339,1,85,0|2,1:0|1:0,0:0:0:0:
329,225,134380,2,0,B|360:193|360:193|398:179,1,85,10|0,1:0|0:0,0:0:0:0:
406,294,134624,6,0,L|350:362,1,85,2|0,1:0|0:0,0:0:0:0:
145,281,134868,2,0,L|189:359,1,85,10|0,1:0|0:0,0:0:0:0:
265,90,135112,102,0,B|254:153|279:160|271:243,1,127.5,6|0,1:0|0:0,0:0:0:0:
272,216,135356,2,0,B|234:224|197:222|163:212,1,85,10|0,1:0|0:0,0:0:0:0:
15,106,135599,2,0,B|36:149|80:172|123:171,1,127.5,2|0,1:0|0:0,0:0:0:0:
117,170,135843,2,0,B|108:215|115:260,1,85,10|2,1:0|1:0,0:0:0:0:
207,360,136087,5,0,1:0:0:0:
282,302,136209,1,2,1:0:0:0:
216,248,136331,101,10,1:0:0:0:
351,359,136453,1,0,0:0:0:0:
395,198,136575,2,0,B|396:153|390:111,1,85,2|0,1:0|0:0,0:0:0:0:
277,28,136819,2,0,L|166:36,1,85,8|0,1:0|0:0,0:0:0:0:
32,103,137063,6,0,B|86:90|140:99,1,85,6|0,1:0|0:0,0:0:0:0:
115,283,137307,2,0,B|71:285|30:276,1,85,10|0,1:0|0:0,0:0:0:0:
177,185,137551,2,0,B|226:193|261:234|263:283|243:321,1,170,2|8,1:0|1:0,0:0:0:0:
419,319,137917,101,2,1:0:0:0:
334,363,138038,2,0,B|325:320|325:320|334:266,1,85,0|2,0:0|1:0,0:0:0:0:
471,199,138282,2,0,L|381:192,1,85,10|0,1:0|0:0,0:0:0:0:
294,54,138526,2,0,B|285:97|285:97|294:151,1,85,2|0,1:0|0:0,0:0:0:0:
164,234,138770,2,0,L|259:227,1,85,8|0,1:0|0:0,0:0:0:0:
379,109,139014,6,0,L|430:34,1,85,6|0,1:0|0:0,0:0:0:0:
216,148,139258,2,0,L|126:131,1,85,8|0,1:3|0:0,0:0:0:0:
348,268,139502,2,0,L|377:351,1,85,2|8,1:0|1:3,0:0:0:0:
403,184,139746,1,8,1:3:0:0:
250,247,139868,1,2,1:0:0:0:
487,218,139990,101,4,1:2:0:0:
307,161,140112,1,2,1:0:0:0:
196,307,140234,1,8,1:3:0:0:
376,348,140356,1,8,1:3:0:0:
440,160,140478,1,10,1:0:0:0:
434,143,140559,1,0,1:0:0:0:
430,126,140640,1,0,1:0:0:0:
424,108,140721,2,0,L|400:18,1,85,0|0,1:0|0:0,0:0:0:0:
340,117,140965,38,0,L|332:202,1,68,4|0,1:0|0:0,0:0:0:0:
308,279,141209,2,0,L|377:266,1,68,2|0,1:3|0:3,0:0:0:0:
257,211,141453,2,0,L|92:193,1,136,0|2,0:3|1:3,0:0:0:0:
62,118,141819,101,0,0:0:0:0:
9,190,141941,2,0,B|8:232|13:273,1,68,0|0,1:0|0:0,0:0:0:0:
88,322,142185,2,0,L|166:309,1,68,2|0,1:3|0:0,0:0:0:0:
249,349,142429,2,0,B|270:298|264:244|239:200,1,136,0|2,0:0|1:3,0:0:0:0:
296,100,142795,5,0,0:0:0:0:
212,66,142917,2,0,B|203:92|204:118|213:141,1,68,0|0,1:0|0:0,0:0:0:0:
328,181,143160,2,0,L|404:174,1,68,2|0,1:3|0:0,0:0:0:0:
445,107,143404,2,0,B|430:177|443:247,1,136,2|2,0:0|1:3,0:0:0:0:
383,335,143770,101,0,0:0:0:0:
306,300,143892,2,0,B|269:302|232:308,1,68,0|0,1:0|0:0,0:0:0:0:
202,182,144136,2,0,B|240:181|275:174,1,68,2|0,1:3|0:0,0:0:0:0:
165,256,144380,2,0,B|90:251|19:265,1,136,0|2,0:0|1:3,0:0:0:0:
49,121,144746,5,0,0:0:0:0:
108,65,144868,2,0,L|192:81,1,68,0|0,1:0|0:0,0:0:0:0:
294,100,145112,2,0,L|369:84,1,68,2|0,1:3|0:0,0:0:0:0:
457,32,145356,2,0,B|442:82|444:132|460:177,1,136,2|2,0:0|1:3,0:0:0:0:
337,234,145721,101,0,0:0:0:0:
257,185,145843,2,0,B|218:184|181:190,1,68,0|0,1:0|0:0,0:0:0:0:
54,271,146087,2,0,B|93:270|130:276,1,68,2|0,1:3|0:0,0:0:0:0:
99,182,146331,2,0,L|91:102,1,68,8|0,0:3|0:0,0:0:0:0:
221,290,146575,2,0,L|214:371,1,68,10|0,1:3|0:0,0:0:0:0:
408,236,146819,6,0,L|340:212,1,68,8|0,1:3|0:0,0:0:0:0:
164,228,147063,1,10,1:3:0:0:
310,309,147185,1,8,1:3:0:0:
297,123,147307,2,0,L|327:34,1,68,8|0,1:3|0:0,0:0:0:0:
177,214,147551,102,0,L|88:213,1,68,10|0,1:3|0:0,0:0:0:0:
313,289,147795,2,0,L|354:371,1,68,10|0,1:3|0:0,0:0:0:0:
265,193,148038,5,10,1:3:0:0:
265,193,148160,1,8,1:3:0:0:
321,59,148282,2,0,L|297:123,1,68,8|0,1:3|0:0,0:0:0:0:
392,251,148526,1,10,1:3:0:0:
210,356,148648,101,8,1:3:0:0:
210,356,148709,1,8,1:3:0:0:
210,356,148770,2,0,B|199:291|204:227,1,102,4|0,1:2|0:0,0:0:0:0:
202,254,149014,2,0,L|113:257,1,68,8|0,1:2|0:0,0:0:0:0:
16,74,149258,2,0,L|29:184,1,102,0|0,1:0|0:0,0:0:0:0:
27,175,149502,6,0,B|72:183|115:169,1,68,8|0,1:2|0:0,0:0:0:0:
213,105,149746,2,0,L|203:18,1,68,0|0,1:0|0:0,0:0:0:0:
361,162,149990,2,0,L|265:168,1,68,8|8,1:0|1:0,0:0:0:0:
421,22,150234,2,0,B|451:63|454:115|434:157,1,136,0|8,0:0|1:0,0:0:0:0:
366,252,150599,101,0,0:0:0:0:
454,324,150721,2,0,B|462:275|445:228,1,68,0|0,1:0|0:0,0:0:0:0:
275,226,150965,2,0,B|268:260|273:293,1,68,8|8,1:0|1:0,0:0:0:0:
78,344,151209,2,0,L|220:357,1,136,0|8,0:0|1:0,0:0:0:0:
102,255,151575,5,0,0:0:0:0:
165,197,151697,2,0,L|263:191,1,68,0|0,1:0|0:0,0:0:0:0:
93,102,151941,2,0,L|188:115,1,68,8|8,1:0|1:0,0:0:0:0:
166,27,152185,2,0,L|325:29,1,136,0|8,0:0|1:0,0:0:0:0:
430,87,152551,101,0,0:0:0:0:
365,151,152673,2,0,L|290:142,1,68,4|0,1:0|0:0,0:0:0:0:
184,195,152917,2,0,L|101:203,1,68,8|0,1:0|0:0,0:0:0:0:
163,326,153160,2,0,L|19:307,1,136,0|8,0:0|1:0,0:0:0:0:
246,264,153526,5,0,0:0:0:0:
335,333,153648,2,0,L|424:315,1,68,0|0,1:0|0:0,0:0:0:0:
344,159,153892,2,0,L|430:179,1,68,8|8,1:0|1:0,0:0:0:0:
278,238,154136,102,0,L|364:250,1,68,0|0,0:0|1:0,0:0:0:0:
264,74,154380,2,0,L|347:65,1,68,8|0,1:0|1:0,0:0:0:0:
145,144,154624,6,0,B|150:181|151:218,1,68,8|0,1:3|0:0,0:0:0:0:
279,290,154868,1,8,1:3:0:0:
164,363,154990,1,0,0:0:0:0:
35,293,155112,102,0,B|77:289|117:293,1,68,12|0,1:3|0:0,0:0:0:0:
240,196,155356,1,8,1:3:0:0:
119,92,155478,1,0,0:0:0:0:
1,200,155599,2,0,B|37:202|71:194,1,68,8|8,1:3|1:3,0:0:0:0:
323,139,155843,5,8,1:0:0:0:
382,238,155965,1,0,0:0:0:0:
198,292,156087,101,8,1:3:0:0:
285,230,156209,1,8,1:3:0:0:
455,362,156331,5,8,1:0:0:0:
336,325,156453,1,8,1:3:0:0:
323,139,156575,85,14,1:0:0:0:
455,166,156697,1,8,1:0:0:0:
455,166,156941,101,6,1:0:0:0:
323,139,157063,2,0,L|255:146,1,68,8|0,1:0|0:0,0:0:0:0:
98,24,157307,86,0,L|114:193,1,170,4|0,1:0|1:0,0:0:0:0:
103,216,158038,1,8,1:0:0:0:
93,239,158282,2,0,L|102:292,1,42.5,0|0,1:0|1:0,0:0:0:0:
160,328,158526,2,0,B|200:309|243:306,1,85,2|0,0:0|1:0,0:0:0:0:
276,237,158892,2,0,B|259:195|251:151,1,85,4|0,1:2|0:0,0:0:0:0:
236,81,159258,2,0,L|329:60,1,85,0|0,1:0|0:0,0:0:0:0:
342,72,159746,5,0,1:0:0:0:
359,89,159990,2,0,L|380:140,1,42.5,8|0,1:0|0:0,0:0:0:0:
495,243,160234,2,0,L|428:272,1,63.75,4|0,0:3|0:0,0:0:0:0:
395,350,160478,22,0,B|404:279|404:279|334:246,1,136,6|0,1:0|1:0,0:0:0:0:
200,155,160843,1,14,1:0:0:0:
200,155,160965,2,0,B|197:193|205:230,1,68,8|0,1:0|0:0,0:0:0:0:
445,135,161209,70,0,B|428:66|365:20|293:22|242:56,1,255,4|0,1:0|1:0,0:0:0:0:
252,331,162307,5,0,1:0:0:0:
252,331,162429,2,2,B|258:327|258:327|258:332|258:332|263:327|263:327|263:332|263:332|267:327|267:327|268:332|268:332|272:327|272:327|273:332|273:332|277:327|277:327|278:332|278:332|283:327|283:327|283:332|283:332|288:327|288:327|288:332|288:332|293:327|293:327|293:332|293:332|298:327|298:327|298:332|298:332|303:327|303:327|303:332|303:332|308:327|308:327|308:332|308:332|313:327|313:327|313:332|313:332|318:327|318:327|318:332|318:332|323:327|323:327|323:332|323:332|328:327|328:327|328:332|328:332|333:327|333:327|333:332|333:332|338:327|338:327|338:332|338:332|343:327|343:327|343:332|343:332|348:327|348:327|348:332|348:332|353:327|353:327|353:332|353:332|358:327|358:327|358:332|358:332|363:327|363:327|363:332|363:332|367:327|367:327|368:332|368:332|372:327|372:327|373:332|373:332|377:327|377:327|378:332|378:332|382:327|382:327|383:332|383:332|387:327|387:327|387:332|387:332|392:327|392:327|392:332|392:332|397:327|397:327|397:332|397:332|402:327|402:327|402:332,2,340,0|0|6,0:0|0:0|1:0,1:0:0:0:
130,259,164502,5,0,0:0:0:0:
130,259,164746,1,10,1:0:0:0:
130,259,164807,1,0,1:0:0:0:
130,259,164868,2,0,B|119:208|119:208|130:142,1,102,0|0,1:0|0:0,0:0:0:0:
74,57,165112,86,0,B|53:155|166:198|231:150|296:95|400:146|394:228,1,425,4|0,1:0|1:0,0:0:0:0:
394,217,166575,2,0,L|338:224,1,42.5,0|0,1:0|1:0,0:0:0:0:
282,218,166819,1,8,1:0:0:0:
260,241,167063,2,0,B|250:170|257:100,1,127.5,0|0,0:0|0:0,0:0:0:0:
147,26,167551,38,0,B|181:30|181:30|228:27,1,68,6|0,1:0|0:0,0:0:0:0:
470,74,167795,2,0,B|436:78|436:78|389:75,1,68,8|8,1:0|1:0,0:0:0:0:
141,125,168038,1,4,0:0:0:0:
120,103,168282,86,0,B|145:234|131:364,1,255,4|2,1:0|0:0,0:0:0:0:
131,356,169258,2,0,L|181:362,1,42.5,0|8,1:0|0:1,0:0:0:0:
346,198,169624,1,8,0:1:0:0:
346,198,169746,2,0,L|345:246,1,42.5,4|0,0:0|0:0,0:0:0:0:
397,294,169990,2,0,L|443:295,1,42.5,8|0,1:0|0:0,0:0:0:0:
500,201,170234,102,0,B|487:134|498:69,1,127.5,4|8,1:0|0:1,0:0:0:0:
436,29,170721,2,0,L|388:35,1,42.5,0|0,1:0|0:0,0:0:0:0:
334,86,170965,1,4,1:2:0:0:
308,81,171209,1,4,1:2:0:0:
282,77,171453,1,4,1:2:0:0:
256,72,171697,53,0,1:2:0:0:
206,83,171778,1,0,1:0:0:0:
182,129,171860,1,0,1:0:0:0:
193,179,171941,1,0,1:2:0:0:
232,210,172022,1,0,1:0:0:0:
279,228,172104,1,0,1:0:0:0:
309,264,172185,86,0,B|320:296|318:329|305:357,1,85,4|0,1:0|0:0,0:0:0:0:
190,355,172429,2,0,L|96:350,1,85,8|0,1:0|0:0,0:0:0:0:
74,133,172673,1,2,0:0:0:0:
10,226,172795,1,0,1:0:0:0:
110,265,172917,2,0,L|199:256,1,85,8|0,1:0|0:0,0:0:0:0:
372,156,173160,6,0,B|377:121|372:87|359:57,1,85,0|0,1:0|0:0,0:0:0:0:
150,71,173404,2,0,B|136:112|142:155,1,85,8|0,1:0|1:0,0:0:0:0:
262,106,173648,2,0,L|253:4,1,85,2|0,0:0|1:0,0:0:0:0:
194,221,173892,102,0,L|93:256,1,85,8|0,1:0|0:0,0:0:0:0:
336,227,174136,2,0,B|423:220|400:273|507:260,1,170,6|8,1:0|1:0,0:0:0:0:
310,321,174502,1,0,0:0:0:0:
266,201,174624,2,0,B|259:161|259:161|268:109,1,85,2|0,0:0|1:0,0:0:0:0:
439,58,174868,2,0,B|446:101|446:101|439:141,1,85,8|0,1:0|0:0,0:0:0:0:
190,84,175112,6,0,B|127:54|53:82|24:142,1,170,6|8,1:0|1:0,0:0:0:0:
134,255,175477,1,0,1:0:0:0:
245,276,175599,2,0,B|251:240|237:206|211:184,1,85,2|0,0:0|1:0,0:0:0:0:
106,356,175843,2,0,B|139:368|174:360|198:338,1,85,8|0,1:0|1:0,0:0:0:0:
121,155,176087,102,0,B|61:164|23:223|38:281,1,170,6|8,1:0|1:0,0:0:0:0:
253,376,176453,1,0,0:0:0:0:
317,198,176575,2,0,L|303:100,1,85,2|0,0:0|1:0,0:0:0:0:
476,273,176819,2,0,L|387:248,1,85,8|0,1:0|0:0,0:0:0:0:
298,316,177063,2,0,L|396:163,1,170,2|10,1:0|1:0,0:0:0:0:
364,36,177429,1,0,0:0:0:0:
512,80,177551,1,0,0:0:0:0:
389,172,177673,1,2,1:0:0:0:
202,105,177795,6,0,B|195:57|205:10,1,85,8|0,1:0|0:0,0:0:0:0:
296,128,178038,2,0,B|289:178|247:214|197:216|159:193,1,170,6|8,1:0|1:0,0:0:0:0:
337,61,178404,101,0,1:0:0:0:
337,61,178526,2,0,B|389:60|433:97|445:148|430:191,1,170,4|8,1:2|1:0,0:0:0:0:
159,273,178892,1,0,1:3:0:0:
159,273,179014,2,0,B|117:241|106:185|129:137|168:114,1,170,4|8,1:2|1:0,0:0:0:0:
379,306,179380,1,0,1:3:0:0:
379,306,179502,2,0,B|352:327|320:336|288:335,1,85,2|0,1:0|1:3,0:0:0:0:
256,121,179746,2,0,L|215:13,1,85,10|0,1:0|1:3,0:0:0:0:
470,104,179990,6,0,B|471:157|434:203|381:214|338:197,1,170,6|8,1:0|1:0,0:0:0:0:
246,311,180356,1,0,0:0:0:0:
133,181,180477,2,0,B|127:137|127:137|137:90,1,85,2|0,0:0|1:0,0:0:0:0:
302,115,180721,101,8,1:0:0:0:
192,264,180843,1,0,0:0:0:0:
24,183,180965,2,0,L|49:11,1,170,0|8,1:0|1:0,0:0:0:0:
224,139,181331,5,0,0:0:0:0:
107,325,181453,1,2,0:0:0:0:
313,289,181575,1,0,1:0:0:0:
105,164,181697,2,0,B|105:210|115:253,1,85,10|0,1:0|0:0,0:0:0:0:
234,328,181941,102,0,B|312:320|305:369|422:348,1,170,6|8,1:0|1:0,0:0:0:0:
499,244,182307,1,0,0:0:0:0:
363,178,182429,2,0,B|354:208|355:239|364:266,1,85,2|0,0:0|1:0,0:0:0:0:
196,226,182673,2,0,L|296:214,1,85,8|0,1:0|0:0,0:0:0:0:
350,49,182917,6,0,B|348:100|309:140|258:146|219:125,1,170,0|8,1:0|1:0,0:0:0:0:
398,273,183282,1,0,1:0:0:0:
485,151,183404,2,0,B|453:141|420:142|391:152,1,85,2|0,0:0|1:0,0:0:0:0:
276,258,183648,2,0,B|260:292|266:331|287:359,1,85,8|0,1:0|0:0,0:0:0:0:
428,359,183892,102,0,B|462:321|504:294,1,85,4|0,1:0|0:0,0:0:0:0:
355,232,184136,2,0,B|356:282|342:329,1,85,10|0,1:0|0:0,0:0:0:0:
497,209,184380,2,0,B|451:199|413:173,1,85,2|0,1:0|1:0,0:0:0:0:
192,202,184624,6,0,B|233:178|281:175,1,85,8|2,1:0|1:0,0:0:0:0:
144,60,184868,1,0,0:0:0:0:
127,149,184990,1,2,1:0:0:0:
289,89,185112,2,0,B|247:70|219:33,1,85,8|0,1:0|0:0,0:0:0:0:
186,293,185356,2,0,B|230:273|276:263,1,85,2|0,1:0|0:0,0:0:0:0:
65,72,185599,2,0,B|61:116|47:157,1,85,10|0,1:0|1:0,0:0:0:0:
251,187,185843,102,0,L|337:192,1,85,2|0,1:0|0:0,0:0:0:0:
181,136,186087,2,0,L|150:47,1,85,10|0,1:0|0:0,0:0:0:0:
162,215,186331,2,0,L|92:271,1,85,2|0,1:0|1:0,0:0:0:0:
53,325,186575,6,0,L|137:261,1,85,8|2,1:0|1:0,0:0:0:0:
375,182,186819,2,0,L|290:177,1,85,10|8,1:0|1:0,0:0:0:0:
130,28,187063,2,0,L|157:108,1,85,10|0,1:0|0:0,0:0:0:0:
326,257,187307,101,8,1:0:0:0:
172,342,187429,1,8,1:0:0:0:
213,228,187551,5,8,1:0:0:0:
287,369,187673,1,8,1:0:0:0:
425,279,187795,102,0,B|459:216|446:143|402:94,1,170,4|8,1:0|1:0,0:0:0:0:
295,30,188160,1,0,0:0:0:0:
150,106,188282,2,0,B|139:151|139:151|155:204,1,85,2|0,0:0|1:0,0:0:0:0:
310,129,188526,2,0,L|220:143,1,85,8|0,1:0|0:0,0:0:0:0:
33,166,188770,6,0,B|79:156|124:185|136:233|120:271,1,170,0|8,1:0|1:0,0:0:0:0:
306,292,189136,1,0,0:0:0:0:
215,342,189258,2,0,B|204:310|204:278|213:248,1,85,2|0,0:0|1:0,0:0:0:0:
398,333,189502,2,0,B|404:303|402:274|393:248,1,85,10|0,1:0|0:0,0:0:0:0:
504,242,189746,102,0,L|469:61,1,170,6|8,1:0|1:0,0:0:0:0:
288,113,190112,1,0,0:0:0:0:
389,153,190234,1,2,0:0:0:0:
360,45,190356,1,0,1:0:0:0:
272,221,190477,6,0,L|178:231,1,85,8|0,1:0|0:0,0:0:0:0:
16,57,190721,2,0,B|-2:104|21:156|69:178|112:169,1,170,2|8,1:0|1:0,0:0:0:0:
251,79,191087,1,0,0:0:0:0:
161,35,191209,2,0,B|153:68|155:100|164:129,1,85,2|0,0:0|1:0,0:0:0:0:
341,119,191453,2,0,B|351:76|341:34,1,85,8|0,1:0|0:0,0:0:0:0:
184,214,191697,102,0,B|131:211|83:231,1,85,4|0,1:0|0:0,0:0:0:0:
330,235,191941,2,0,B|383:236|432:248,1,85,8|0,1:0|0:0,0:0:0:0:
256,157,192185,2,0,L|258:241,1,85,2|0,0:0|1:0,0:0:0:0:
260,326,192429,2,0,L|257:232,1,85,8|0,1:0|0:0,0:0:0:0:
465,82,192673,6,0,B|418:54|358:70|328:119|334:167,1,170,0|8,1:0|1:0,0:0:0:0:
446,285,193038,1,0,0:0:0:0:
497,198,193160,2,0,B|454:188|454:188|404:198,1,85,2|8,1:0|1:0,0:0:0:0:
292,331,193404,2,0,B|335:341|335:341|385:331,1,85,10|0,1:0|0:0,0:0:0:0:
236,242,193648,102,0,B|157:226|156:280|50:256,1,170,6|8,1:0|1:0,0:0:0:0:
6,130,194014,1,0,0:0:0:0:
100,30,194136,2,0,B|149:38|184:77|191:125|174:164,1,170,2|8,1:0|1:0,0:0:0:0:
381,225,194502,5,0,0:0:0:0:
316,163,194624,2,0,B|267:171|232:210|225:258|242:297,1,170,6|8,1:0|1:0,0:0:0:0:
157,353,194990,1,0,0:0:0:0:
326,355,195112,2,0,B|337:320|332:284|316:255,1,85,2|0,0:0|1:0,0:0:0:0:
155,165,195356,2,0,B|144:200|149:236|165:265,1,85,0|0,1:0|0:0,0:0:0:0:
400,258,195599,102,0,L|389:68,1,170,4|8,1:0|1:0,0:0:0:0:
306,183,195965,1,0,0:0:0:0:
248,115,196087,2,0,L|252:30,1,85,2|0,0:0|1:0,0:0:0:0:
139,91,196331,2,0,B|94:98|94:98|44:89,1,85,8|0,1:0|0:0,0:0:0:0:
137,185,196575,6,0,B|86:182|42:219|34:271|54:311,1,170,0|8,1:0|1:0,0:0:0:0:
157,362,196941,1,0,0:0:0:0:
218,272,197063,2,0,B|186:258|151:259|122:271,1,85,2|0,0:0|1:0,0:0:0:0:
315,218,197307,102,0,B|347:204|382:205|411:217,1,85,8|0,1:0|0:0,0:0:0:0:
240,197,197551,2,0,B|223:116|268:126|239:27,1,170,4|8,1:0|1:0,0:0:0:0:
415,103,197917,1,0,0:0:0:0:
492,27,198038,2,0,L|408:14,1,85,2|0,0:0|1:0,0:0:0:0:
449,184,198282,2,0,L|518:117,1,85,8|0,1:0|0:0,0:0:0:0:
306,50,198526,6,0,L|378:223,1,170,2|8,1:0|1:0,0:0:0:0:
372,368,198892,1,0,1:0:0:0:
485,275,199014,1,2,1:0:0:0:
377,289,199136,1,0,1:0:0:0:
272,213,199258,101,10,1:0:0:0:
133,239,199380,1,0,0:0:0:0:
216,311,199502,54,0,L|235:123,1,170,6|8,1:0|1:3,0:0:0:0:
157,27,199868,1,0,0:0:0:0:
325,35,199990,2,0,L|317:125,1,85,8|0,1:3|0:0,0:0:0:0:
147,200,200234,2,0,L|155:110,1,85,2|0,1:0|1:0,0:0:0:0:
425,92,200477,6,2,B|493:125|511:219|447:283|376:279,1,255,0|0,1:0|0:0,1:0:0:0:
251,193,200965,2,0,B|301:184|349:196,1,85,2|0,0:0|0:0,0:0:0:0:
343,357,201209,2,0,B|309:368|274:367|243:357,1,85,8|0,1:3|0:0,0:0:0:0:
164,329,201453,102,0,L|149:239,1,85,2|0,1:0|0:0,0:0:0:0:
22,138,201697,2,0,L|101:176,1,85,8|0,1:3|0:0,0:0:0:0:
225,99,201941,2,0,L|160:179,1,85,8|0,1:3|0:0,0:0:0:0:
64,263,202185,6,0,B|26:294|-18:313,1,85,2|0,1:0|0:0,0:0:0:0:
130,97,202429,2,0,B|137:51|122:7,1,85,0|2,0:0|1:0,0:0:0:0:
243,241,202673,2,0,B|278:275|321:295,1,85,2|0,0:0|0:0,0:0:0:0:
154,290,202917,2,0,L|142:180,1,85,2|0,1:0|0:0,0:0:0:0:
141,39,203160,101,2,1:0:0:0:
205,155,203282,1,2,1:0:0:0:
289,66,203404,2,2,B|385:75|367:35|480:40,1,170,2|8,1:0|1:3,1:0:0:0:
394,180,203770,1,0,0:0:0:0:
485,215,203892,2,0,B|499:182|491:146|467:122,1,85,8|0,1:3|0:0,0:0:0:0:
417,276,204136,2,0,B|383:285|349:272|329:246,1,85,2|0,1:0|0:0,0:0:0:0:
493,199,204380,6,0,B|507:166|499:130|475:106,1,85,0|2,0:0|1:0,0:0:0:0:
403,289,204624,2,0,B|369:298|335:285|315:259,1,85,2|0,0:0|0:0,0:0:0:0:
500,185,204868,102,0,B|514:152|506:116|482:92,1,85,2|0,1:0|0:0,0:0:0:0:
387,302,205112,2,0,B|353:311|319:298|299:272,1,85,2|0,1:0|0:0,0:0:0:0:
16,309,205356,6,0,B|151:285|126:383|280:340,1,255,2|0,1:0|0:0,1:0:0:0:
269,89,205843,2,0,B|194:81|129:150|147:237|206:274,1,255,2|0,1:0|0:0,0:0:0:0:
280,258,206331,102,0,L|274:171,1,85,4|0,1:2|0:0,0:0:0:0:
269,89,206575,2,0,L|275:176,1,85,2|0,1:0|0:0,0:0:0:0:
354,142,206819,2,0,L|444:133,1,85,4|0,1:2|0:0,0:0:0:0:
192,192,207063,2,0,L|102:183,1,85,2|2,1:0|1:0,0:0:0:0:
60,102,207307,6,0,B|13:127|-6:183|13:233|51:259,1,170,6|8,1:0|1:3,0:0:0:0:
154,360,207673,1,0,0:0:0:0:
215,313,207795,2,0,L|326:301,1,85,8|0,1:3|0:0,0:0:0:0:
366,224,208038,1,2,1:0:0:0:
477,245,208160,1,0,0:0:0:0:
404,322,208282,102,2,B|393:238|439:256|421:132,1,170,0|8,1:0|1:3,1:0:0:0:
497,39,208648,1,0,0:0:0:0:
318,49,208770,2,0,B|332:95|327:142,1,85,8|0,1:3|0:0,0:0:0:0:
400,36,209014,5,2,1:0:0:0:
234,60,209136,1,0,0:0:0:0:
339,208,209258,2,0,B|384:237|442:227|477:186|483:140,1,170,2|8,1:0|1:3,0:0:0:0:
413,117,209624,1,0,0:0:0:0:
195,156,209746,2,0,B|189:203|200:248,1,85,8|0,1:3|0:0,0:0:0:0:
239,346,209990,2,0,L|342:327,1,85,2|0,1:0|0:0,0:0:0:0:
410,291,210234,2,0,L|499:306,1,85,2|0,1:0|0:0,0:0:0:0:
308,213,210477,102,0,B|298:160|310:108,1,85,8|0,1:3|0:0,0:0:0:0:
478,68,210721,2,0,B|483:111|476:152,1,85,8|0,1:3|0:0,0:0:0:0:
329,48,210965,2,0,L|230:38,1,85,2|2,1:0|1:0,0:0:0:0:
187,122,211209,6,0,B|99:113|108:154|13:138,1,170,2|8,1:0|1:3,0:0:0:0:
34,303,211575,1,0,0:0:0:0:
111,248,211697,2,0,B|163:241|213:255,1,85,8|0,1:3|0:0,0:0:0:0:
343,333,211941,2,0,B|309:317|272:313|238:319,1,85,2|0,1:0|0:0,0:0:0:0:
403,157,212185,102,0,B|361:206|295:219|239:198,1,170,2|8,1:0|1:3,0:0:0:0:
178,97,212551,1,0,1:0:0:0:
273,39,212673,2,0,B|268:69|271:99|280:125,1,85,2|0,1:0|0:0,0:0:0:0:
381,61,212917,2,0,L|467:70,1,85,2|0,1:0|0:0,0:0:0:0:
494,180,213160,6,0,B|480:233|488:286,1,85,4|0,1:2|0:0,0:0:0:0:
350,324,213404,2,0,B|399:310|448:320,1,85,2|0,1:0|0:0,0:0:0:0:
249,264,213648,1,4,0:0:0:0:
290,149,213770,1,0,1:0:0:0:
408,206,213892,1,10,1:0:0:0:
205,354,214014,101,2,1:0:0:0:
120,301,214136,2,0,B|117:240|130:183,1,85,6|0,1:0|0:0,0:0:0:0:
38,68,214380,2,0,B|44:111|43:154,1,85,8|0,1:0|0:0,0:0:0:0:
249,151,214624,1,10,1:0:0:0:
144,83,214746,1,0,1:0:0:0:
205,257,214868,2,0,B|258:243|312:255,1,85,2|0,1:0|0:0,0:0:0:0:
327,125,215112,6,0,B|339:190|339:190|370:209|370:209|389:293,1,170,6|8,1:0|1:0,0:0:0:0:
309,345,215477,1,0,0:0:0:0:
479,352,215599,2,0,B|484:306|484:306|470:265,1,85,2|0,0:2|0:0,0:0:0:0:
485,149,215843,2,0,B|449:127|449:127|399:125,1,85,8|0,1:0|0:0,0:0:0:0:
289,54,216087,2,0,B|258:83|258:83|242:127,1,85,0|0,0:0|0:0,0:0:0:0:
159,235,216331,2,0,B|200:256|200:256|246:262,1,85,8|0,1:0|0:0,0:0:0:0:
355,328,216575,2,0,B|370:288|370:288|373:234,1,85,2|8,0:0|1:0,0:0:0:0:
431,142,216819,2,0,B|398:112|398:112|355:97,1,85,8|0,1:0|0:0,0:0:0:0:
248,26,217063,102,0,B|218:61|218:61|206:104,1,85,2|0,1:0|0:0,0:0:0:0:
130,197,217307,2,0,B|172:209|172:209|215:201,1,85,10|0,1:0|0:0,0:0:0:0:
331,221,217551,2,0,B|315:175|315:175|280:143,1,85,2|0,1:0|0:0,0:0:0:0:
41,109,217795,6,0,L|63:306,1,170,10|0,1:0|0:0,0:0:0:0:
205,219,218160,1,0,0:0:0:0:
285,277,218282,2,0,B|294:322|294:322|281:380,1,85,10|0,1:0|0:0,0:0:0:0:
144,364,218526,2,0,B|131:327|131:327|140:282,1,85,2|0,1:0|0:0,0:0:0:0:
299,200,218770,2,0,L|388:197,1,85,8|0,1:0|0:0,0:0:0:0:
476,269,219014,102,0,B|502:196|502:196|474:89,1,170,6|8,1:0|1:0,0:0:0:0:
466,32,219380,1,0,0:0:0:0:
288,45,219502,2,0,B|276:87|276:87|285:134,1,85,2|0,0:0|0:0,0:0:0:0:
117,100,219746,2,0,L|218:95,1,85,8|0,1:0|0:0,0:0:0:0:
109,269,219990,6,0,L|64:189,1,85,0|0,0:0|0:0,0:0:0:0:
264,186,220234,2,0,L|215:272,1,85,8|0,1:0|0:0,0:0:0:0:
102,93,220477,102,0,L|203:88,1,85,2|8,0:0|1:0,0:0:0:0:
82,236,220721,2,0,L|50:150,1,85,8|0,1:0|0:0,0:0:0:0:
248,178,220965,2,0,L|187:256,1,85,2|0,1:0|0:0,0:0:0:0:
103,61,221209,6,0,L|204:72,1,85,8|2,1:0|1:0,0:0:0:0:
82,210,221453,2,0,L|63:120,1,85,2|0,1:0|0:0,0:0:0:0:
255,179,221697,2,0,L|181:245,1,85,10|0,1:0|0:0,0:0:0:0:
133,42,221941,2,0,L|230:68,1,85,,,0:0:0:0:
10,80,222185,102,0,B|23:39|23:39|70:6,1,85,10|0,1:0|0:0,0:0:0:0:
170,307,222429,2,0,B|129:316|129:316|89:298,1,85,2|0,1:0|0:0,0:0:0:0:
293,46,222673,2,0,B|323:75|323:75|329:117,1,85,10|0,1:0|0:0,0:0:0:0:
154,196,222917,6,0,L|160:100,1,85,6|0,1:0|0:0,0:0:0:0:
346,281,223160,2,0,L|340:185,1,85,10|2,1:0|1:0,0:0:0:0:
172,270,223404,2,0,L|188:88,1,170,2|8,1:0|1:0,0:0:0:0:
265,220,223770,1,0,0:0:0:0:
429,121,223892,102,0,L|414:27,1,85,2|0,1:0|0:0,0:0:0:0:
279,129,224136,2,0,L|294:35,1,85,10|0,1:0|0:0,0:0:0:0:
448,150,224380,6,0,L|433:56,1,85,2|0,1:0|0:0,0:0:0:0:
255,158,224624,2,0,L|270:64,1,85,10|0,1:0|0:0,0:0:0:0:
361,277,224868,2,0,B|371:220|371:220|347:182|347:182|357:104,1,170,6|8,1:0|1:0,0:0:0:0:
363,29,225234,1,2,1:0:0:0:
98,64,225356,102,0,B|90:109|90:109|101:155,1,85,,,0:0:0:0:
259,227,225599,2,0,B|268:188|268:188|260:143,1,85,10|0,1:0|0:0,0:0:0:0:
8,292,225843,2,0,B|93:313|93:313|150:282|150:282|262:313,2,255,6|6|4,1:0|1:0|1:2,0:0:0:0:
171,369,226697,1,0,0:0:0:0:
329,309,226819,38,0,B|346:247|341:185|319:130,1,170,4|0,1:0|1:0,0:0:0:0:
340,111,227551,1,0,0:0:0:0:
56,32,227795,2,0,B|46:77|57:122,1,85,8|0,1:0|0:0,0:0:0:0:
111,171,228160,21,8,1:0:0:0:
189,199,228282,2,0,L|263:190,1,68,4|0,1:2|0:0,0:0:0:0:
496,298,228526,2,0,L|422:289,1,68,10|0,1:0|0:0,0:0:0:0:
217,337,228770,102,0,B|271:351|325:315|334:260,1,136,4|2,1:0|1:0,0:0:0:0:
418,207,229136,1,0,0:0:0:0:
437,99,229258,2,0,B|433:64|424:31,1,68,4|0,1:2|0:0,0:0:0:0:
244,106,229502,2,0,B|247:71|247:37,1,68,6|0,1:0|0:0,0:0:0:0:
47,78,229746,2,0,B|55:44|60:11,1,68,4|0,1:2|0:0,0:0:0:0:
54,153,229990,1,0,1:0:0:0:
80,194,230071,1,0,1:0:0:0:
128,204,230152,1,0,1:0:0:0:
174,184,230234,1,0,1:0:0:0:
222,172,230315,1,0,1:0:0:0:
266,193,230396,1,0,1:0:0:0:
294,233,230477,5,8,1:0:0:0:
287,254,230559,1,0,1:0:0:0:
281,275,230640,1,0,1:0:0:0:
274,299,230721,69,4,0:3:0:0:
274,299,231749,1,0,0:3:0:0:
274,299,232480,1,2,0:0:0:0:
323,355,232724,2,0,B|359:363|394:352|419:329,1,102,2|0,0:0|0:0,0:0:0:0:
491,344,233700,2,0,L|485:241,1,102,2|0,0:0|0:0,0:0:0:0:
508,167,234675,6,0,B|400:144|415:214|309:187,1,204,2|0,0:0|0:0,0:0:0:0:
241,131,236383,1,0,0:0:0:0:
241,131,236627,102,0,B|236:94|242:59,1,68,4|0,0:0|0:0,0:0:0:0:
168,31,237358,1,0,0:0:0:0:
90,18,237602,1,4,0:0:0:0:
90,18,238090,5,0,0:0:0:0:
168,31,238334,1,0,0:0:0:0:
243,41,238578,2,0,B|218:162|286:156|263:277,1,238,2|0,0:0|0:0,0:0:0:0:
217,342,240529,102,0,B|176:373|120:368|85:336,1,144.5,2|0,0:0|0:0,0:0:0:0:
84,335,242480,1,4,0:0:0:0:
84,335,242925,53,0,1:2:0:0:
68,292,243006,5,0,1:0:0:0:
68,246,243087,21,0,1:0:0:0:
89,206,243168,101,0,1:2:0:0:
119,171,243250,85,0,1:0:0:0:
133,128,243331,5,0,1:0:0:0:
114,86,243412,86,0,L|137:288,1,170,6|8,1:0|1:0,0:0:0:0:
248,343,243777,1,0,0:0:0:0:
340,223,243899,2,0,B|334:173|332:124,1,85,2|0,0:0|1:0,0:0:0:0:
182,45,244143,1,8,1:0:0:0:
245,197,244265,1,0,0:0:0:0:
326,32,244387,102,0,B|414:18|397:59|507:34,1,170,2|8,1:0|1:0,0:0:0:0:
254,121,244753,1,0,0:0:0:0:
429,207,244875,2,0,B|434:162|434:162|425:115,1,85,2|0,0:0|1:0,0:0:0:0:
494,286,245119,2,0,L|398:298,1,85,10|0,1:0|0:0,0:0:0:0:
236,200,245363,6,0,B|198:232|188:284|208:328|243:352,1,170,6|8,1:0|1:0,0:0:0:0:
323,278,245729,1,0,0:0:0:0:
86,198,245851,2,0,B|-30:208,1,85,2|0,0:0|1:0,0:0:0:0:
176,146,246094,1,8,1:0:0:0:
97,302,246216,1,0,0:0:0:0:
5,41,246338,102,0,B|83:30|80:77|180:63,1,170,6|8,1:0|1:0,0:0:0:0:
333,156,246704,1,0,1:0:0:0:
478,157,246826,2,0,B|434:171|434:171|391:226,1,85,2|0,0:0|1:0,0:0:0:0:
264,261,247070,2,0,B|305:251|305:251|362:257,1,85,10|0,1:0|1:0,0:0:0:0:
265,103,247314,6,0,L|208:20,1,85,4|0,1:0|0:0,0:0:0:0:
78,164,247558,2,0,L|74:62,1,85,10|0,1:0|0:0,0:0:0:0:
356,237,247802,102,0,L|394:158,1,85,2|0,1:0|1:0,0:0:0:0:
182,206,248046,2,0,L|174:102,1,85,10|0,1:0|0:0,0:0:0:0:
65,328,248290,6,0,L|7:249,1,85,0|0,1:0|0:0,0:0:0:0:
270,290,248533,2,0,L|282:188,1,85,8|0,1:0|0:0,0:0:0:0:
374,369,248777,102,0,L|432:290,1,85,2|0,1:0|1:0,0:0:0:0:
161,331,249021,2,0,L|134:237,1,85,10|0,1:0|0:0,0:0:0:0:
272,361,249265,6,0,B|256:277|308:288|281:168,1,170,6|8,1:0|1:0,0:0:0:0:
296,79,249631,1,0,1:0:0:0:
155,105,249753,2,0,B|122:163|129:231|166:280,1,170,4|8,1:2|1:0,0:0:0:0:
278,6,250119,101,0,1:0:0:0:
431,75,250241,2,0,B|464:133|457:201|420:250,1,170,4|8,1:2|1:0,0:0:0:0:
259,295,250607,1,0,0:3:0:0:
439,346,250729,1,2,1:0:0:0:
328,219,250851,1,0,1:0:0:0:
165,342,250972,5,10,1:0:0:0:
337,300,251094,1,0,0:0:0:0:
212,171,251216,2,0,B|117:187|125:144|44:156,1,170,6|8,1:0|1:0,0:0:0:0:
165,265,251582,1,0,0:0:0:0:
288,129,251704,2,0,B|278:82|288:35,1,85,2|0,0:0|1:0,0:0:0:0:
476,84,251948,2,0,L|389:80,1,85,8|0,1:0|0:0,0:0:0:0:
301,237,252192,102,0,B|346:261|401:245|429:200|425:156,1,170,2|8,1:0|1:0,0:0:0:0:
214,66,252558,1,0,0:0:0:0:
189,140,252680,2,0,B|183:185|192:229,1,85,2|0,0:0|1:0,0:0:0:0:
24,269,252924,2,0,L|121:262,1,85,10|0,1:0|0:0,0:0:0:0:
92,16,253168,6,0,L|108:191,1,170,6|8,1:0|1:0,0:0:0:0:
274,308,253533,1,0,0:0:0:0:
193,354,253655,2,0,B|183:311|183:311|193:265,1,85,2|0,0:0|1:0,0:0:0:0:
350,267,253899,2,0,B|360:310|360:310|350:356,1,85,8|0,1:0|0:0,0:0:0:0:
440,206,254143,102,0,B|401:236|348:235|309:204|294:164,1,170,2|8,1:0|1:0,0:0:0:0:
175,118,254509,1,0,1:0:0:0:
213,52,254631,2,0,L|302:39,1,85,2|0,0:0|1:0,0:0:0:0:
218,211,254875,1,8,1:0:0:0:
97,61,254997,1,0,0:0:0:0:
340,132,255119,6,0,L|233:123,1,85,4|0,1:0|0:0,0:0:0:0:
79,154,255363,2,0,L|186:145,1,85,10|0,1:0|0:0,0:0:0:0:
405,233,255607,2,0,L|298:224,1,85,2|0,1:0|1:0,0:0:0:0:
140,300,255851,2,0,L|247:291,1,85,8|2,1:0|1:0,0:0:0:0:
72,223,256094,101,0,0:0:0:0:
159,373,256216,1,0,0:0:0:0:
184,175,256338,2,0,B|97:162|114:216|1:194,1,170,10|2,1:0|1:0,0:0:0:0:
248,253,256704,1,0,0:0:0:0:
303,161,256826,2,0,B|293:118|298:76,1,85,8|2,1:0|1:0,0:0:0:0:
396,35,257070,5,0,1:0:0:0:
209,136,257192,1,0,0:0:0:0:
400,260,257314,2,0,B|443:213|432:138|379:104,1,170,10|2,1:0|1:0,0:0:0:0:
311,202,257680,1,0,1:0:0:0:
242,292,257802,2,0,B|272:312|310:308|336:288,1,85,8|0,1:0|1:0,0:0:0:0:
287,166,258046,101,12,1:0:0:0:
230,114,258168,1,8,1:0:0:0:
235,86,258411,5,0,1:0:0:0:
47,157,258533,1,8,1:0:0:0:
126,233,258655,101,8,1:0:0:0:
168,35,258777,1,4,1:2:0:0:
59,45,258899,5,8,1:0:0:0:
215,199,259021,2,0,B|303:177|290:224|393:205,1,170,6|8,1:0|1:0,0:0:0:0:
286,300,259387,1,0,0:0:0:0:
406,367,259509,2,0,B|413:324|413:324|402:260,1,85,2|0,0:0|1:0,0:0:0:0:
354,40,259753,2,0,B|347:83|347:83|353:124,1,85,8|0,1:0|0:0,0:0:0:0:
185,106,259997,102,0,L|287:98,1,85,0|0,1:0|0:0,0:0:0:0:
199,286,260241,2,0,L|283:292,1,85,8|0,1:0|1:0,0:0:0:0:
131,184,260485,1,2,0:0:0:0:
23,238,260607,1,0,1:0:0:0:
121,294,260729,1,10,1:0:0:0:
33,135,260851,1,0,0:0:0:0:
234,24,260972,6,0,B|221:116|270:107|259:204,1,170,6|8,1:0|1:0,0:0:0:0:
201,315,261338,1,0,0:0:0:0:
341,354,261460,2,0,B|351:306|337:259,1,85,2|0,0:0|1:0,0:0:0:0:
181,163,261704,2,0,L|96:172,1,85,8|0,1:0|0:0,0:0:0:0:
320,66,261948,102,0,B|313:118|345:167|395:184|439:172,1,170,6|8,1:0|1:0,0:0:0:0:
273,336,262314,1,0,1:0:0:0:
229,239,262436,2,0,L|314:248,1,85,2|0,0:0|1:0,0:0:0:0:
507,280,262680,1,8,1:0:0:0:
414,371,262802,1,0,1:0:0:0:
390,222,262924,102,0,B|383:152|392:84,2,127.5,4|8|0,1:0|0:1|1:0,0:0:0:0:
113,280,263899,2,0,B|120:210|111:142,2,127.5,4|0|8,1:0|1:0|0:1,0:0:0:0:
303,79,264875,101,4,1:0:0:0:
208,73,265241,1,0,1:0:0:0:
252,164,265607,85,0,1:0:0:0:
247,211,265688,5,0,1:0:0:0:
256,258,265769,69,0,1:0:0:0:
256,306,265851,5,4,1:0:0:0:
178,354,266216,85,0,1:0:0:0:
178,354,266338,2,0,B|166:311|166:311|180:253,1,85,8|8,1:0|1:0,0:0:0:0:
336,271,266582,2,0,B|346:311|346:311|334:354,1,85,4|0,1:2|0:0,0:0:0:0:
247,211,266826,102,0,L|232:35,1,170,6|8,1:0|1:0,0:0:0:0:
390,37,267192,1,0,0:0:0:0:
483,152,267314,2,0,B|490:118|488:84|478:53,1,85,2|0,0:0|1:0,0:0:0:0:
324,188,267558,2,0,B|317:158|318:129|325:102,1,85,8|0,1:0|0:0,0:0:0:0:
499,242,267802,6,0,L|390:234,1,85,0|0,1:0|0:0,0:0:0:0:
235,186,268046,2,0,L|150:192,1,85,8|0,1:0|0:0,0:0:0:0:
49,125,268290,1,8,1:0:0:0:
13,160,268371,1,0,1:0:0:0:
10,210,268452,1,0,1:0:0:0:
30,256,268533,1,8,1:0:0:0:
78,274,268615,1,0,1:0:0:0:
104,317,268696,1,0,1:0:0:0:
82,362,268777,86,0,L|79:179,1,170,4|0,1:0|0:0,0:0:0:0:
79,192,269753,1,4,1:0:0:0:
79,192,270729,70,0,B|125:201|171:191,1,85,4|0,1:0|0:0,0:0:0:0:
288,328,270972,2,0,B|245:320|203:328,1,85,8|0,1:0|0:0,0:0:0:0:
349,135,271216,2,0,B|383:170|378:229|332:259|288:251,1,170,2|8,0:0|1:0,0:0:0:0:
231,146,271582,1,0,0:0:0:0:
80,83,271704,6,0,L|178:68,1,85,0|0,1:0|0:0,0:0:0:0:
88,206,271948,2,0,L|172:218,1,85,8|0,1:0|0:0,0:0:0:0:
30,336,272192,2,0,B|23:292|23:292|34:242,1,85,2|0,0:0|1:0,0:0:0:0:
239,263,272436,2,0,B|246:307|246:307|235:357,1,85,8|0,1:0|0:0,0:0:0:0:
281,185,272680,70,0,B|286:114|268:46,1,127.5,8|0,1:3|0:0,0:0:0:0:
271,58,272924,2,0,B|320:61|366:53,1,85,8|0,1:0|0:0,0:0:0:0:
406,173,273168,2,0,L|410:315,1,127.5,8|0,1:3|0:0,0:0:0:0:
409,300,273411,2,0,L|503:295,1,85,8|0,1:3|0:0,0:0:0:0:
316,368,273655,5,8,1:3:0:0:
305,262,273777,1,8,1:3:0:0:
216,175,273899,69,8,1:0:0:0:
272,67,274021,1,0,1:0:0:0:
165,22,274143,2,0,B|169:53|184:79|205:98,1,85,4|0,1:2|0:0,0:0:0:0:
378,147,274387,2,0,B|342:160|304:157|273:142,1,85,8|8,1:3|1:3,0:0:0:0:
490,211,274631,6,0,L|395:224,1,85,4|0,1:0|0:0,0:0:0:0:
215,304,274875,2,0,L|308:299,1,85,8|0,1:0|0:0,0:0:0:0:
132,158,275119,2,0,B|147:207|194:236|245:232|280:205,1,170,2|8,0:0|1:0,0:0:0:0:
323,116,275485,1,0,0:0:0:0:
214,49,275607,38,0,B|207:95|207:95|219:151,1,85,0|0,1:0|0:0,0:0:0:0:
106,267,275851,1,8,1:0:0:0:
282,329,275972,1,0,0:0:0:0:
32,351,276094,6,0,B|25:310|25:310|36:256,1,85,2|0,0:0|1:0,0:0:0:0:
142,189,276338,2,0,L|18:182,1,85,8|0,1:0|0:0,0:0:0:0:
249,252,276582,70,0,B|261:176|236:103,1,127.5,8|0,1:3|0:0,0:0:0:0:
242,125,276826,2,0,L|337:109,1,85,8|0,1:0|0:0,0:0:0:0:
448,29,277070,1,8,1:3:0:0:
461,202,277192,1,8,1:3:0:0:
411,116,277314,5,8,1:0:0:0:
243,48,277436,1,8,1:3:0:0:
364,220,277558,69,4,1:2:0:0:
337,18,277680,1,8,0:1:0:0:
325,42,277924,5,8,0:1:0:0:
154,133,278046,1,8,1:3:0:0:
334,124,278168,1,8,0:1:0:0:
243,179,278290,1,4,1:2:0:0:
327,218,278411,1,8,1:3:0:0:
254,355,278533,38,0,B|244:296|259:238,1,85,4|0,1:0|0:0,0:0:0:0:
64,280,278777,2,0,B|74:221|59:163,1,85,8|0,1:0|0:0,0:0:0:0:
142,206,279021,2,0,B|79:203|32:151|33:91,1,170,2|8,0:0|1:0,0:0:0:0:
198,60,279387,1,0,0:0:0:0:
114,24,279509,6,0,B|106:57|110:89|122:117,1,85,0|0,1:0|0:0,0:0:0:0:
283,22,279753,2,0,B|291:57|287:91|276:121,1,85,8|0,1:0|0:0,0:0:0:0:
192,74,279997,69,2,0:0:0:0:
413,74,280119,1,8,1:3:0:0:
301,196,280241,1,8,1:0:0:0:
280,106,280363,1,0,0:0:0:0:
396,174,280485,6,0,B|411:234|411:234|387:319,1,127.5,8|0,1:3|0:0,0:0:0:0:
393,297,280729,2,0,L|294:280,1,85,8|0,1:0|0:0,0:0:0:0:
165,117,280972,2,0,L|196:252,1,127.5,8|0,1:3|0:0,0:0:0:0:
193,241,281216,2,0,L|281:214,1,85,8|0,1:0|0:0,0:0:0:0:
496,158,281460,69,8,1:3:0:0:
329,129,281582,1,8,1:3:0:0:
458,235,281704,5,8,1:0:0:0:
406,79,281826,1,8,1:3:0:0:
360,218,281948,5,4,0:0:0:0:
485,75,282070,1,8,1:3:0:0:
315,35,282192,2,0,L|215:42,1,85,8|0,1:0|0:0,0:0:0:0:
53,31,282436,22,0,B|45:66|51:100|66:128,1,85,4|0,1:0|0:0,0:0:0:0:
218,239,282680,2,0,B|229:210|230:181|224:154,1,85,8|0,1:0|0:0,0:0:0:0:
81,202,282924,2,0,B|35:221|13:272|29:321|63:347,1,170,2|8,0:0|1:0,0:0:0:0:
148,270,283290,1,0,0:0:0:0:
297,120,283411,6,0,B|302:78|302:78|288:30,1,85,0|0,1:0|0:0,0:0:0:0:
143,84,283655,2,0,B|138:126|138:126|152:174,1,85,8|0,1:0|0:0,0:0:0:0:
365,226,283899,2,0,L|374:127,1,85,2|8,0:0|1:0,0:0:0:0:
365,226,284143,2,0,L|354:326,1,85,8|0,1:0|0:0,0:0:0:0:
468,323,284387,69,6,1:0:0:0:
478,215,284509,1,0,0:0:0:0:
301,103,284631,5,8,1:0:0:0:
292,283,284753,1,2,1:0:0:0:
376,131,284875,69,0,0:0:0:0:
210,247,284997,1,8,1:0:0:0:
378,250,285119,5,10,1:0:0:0:
222,120,285241,1,0,0:0:0:0:
18,215,285363,37,8,1:0:0:0:
55,240,285444,1,8,1:0:0:0:
99,232,285525,1,8,1:0:0:0:
127,195,285607,1,8,1:0:0:0:
171,185,285688,1,8,1:0:0:0:
213,201,285769,1,8,1:0:0:0:
245,232,285851,5,0,1:0:0:0:
251,212,285932,69,0,1:0:0:0:
267,220,286013,5,0,1:0:0:0:
252,194,286094,69,0,1:0:0:0:
284,215,286176,5,0,1:0:0:0:
280,188,286257,37,0,1:0:0:0:
295,163,286338,21,4,0:3:0:0:
200,136,286704,1,0,0:0:0:0:
104,112,287070,1,0,0:0:0:0:
104,112,287436,1,0,0:0:0:0:
256,32,287802,21,0,0:0:0:0:
256,32,287924,1,0,0:0:0:0:
256,112,288168,1,0,0:0:0:0:
256,112,288290,1,0,0:0:0:0:
208,304,288655,101,0,0:0:0:0:
303,277,289021,1,0,0:0:0:0:
399,253,289387,1,0,0:0:0:0:
399,253,289753,21,0,0:0:0:0:
407,220,289875,1,0,0:0:0:0:
418,187,289997,1,0,0:0:0:0:
430,155,290119,1,0,0:0:0:0:
458,131,290241,69,4,0:3:0:0:
363,104,290607,1,0,0:0:0:0:
266,80,290973,1,0,0:0:0:0:
266,80,291338,1,0,0:0:0:0:
54,280,292192,5,0,0:0:0:0:
149,253,292558,1,0,0:0:0:0:
246,229,292924,1,0,0:0:0:0:
246,229,293289,1,0,0:0:0:0:
344,330,293655,5,0,0:0:0:0:
344,330,293777,1,0,0:0:0:0:
344,250,294021,1,0,0:0:0:0:
344,250,294143,1,4,0:3:0:0:
472,48,294509,85,0,0:0:0:0:
400,64,294875,1,0,0:0:0:0:
328,80,295241,1,0,0:0:0:0:
144,48,295607,37,0,0:0:0:0:
144,48,295729,1,0,0:0:0:0:
152,120,295972,1,0,0:0:0:0:
152,120,296094,1,0,0:0:0:0:
288,176,296460,85,0,0:0:0:0:
280,248,296826,1,0,0:0:0:0:
272,320,297192,1,0,0:0:0:0:
272,320,297558,5,0,0:0:0:0:
248,312,297680,1,0,0:0:0:0:
224,304,297802,1,0,0:0:0:0:
200,296,297924,1,0,0:0:0:0:
184,320,298046,85,4,0:3:0:0:
120,296,298411,1,0,0:0:0:0:
56,272,298777,1,0,0:0:0:0:
56,272,299143,1,0,0:0:0:0:
208,200,299509,37,0,0:0:0:0:
208,200,299631,1,0,0:0:0:0:
272,168,299875,1,0,0:0:0:0:
272,168,299997,1,8,0:3:0:0:
408,296,300363,85,0,0:0:0:0:
344,272,300728,1,0,0:0:0:0:
280,248,301094,1,0,0:0:0:0:
440,64,301460,5,0,0:0:0:0:
440,64,301582,1,0,0:0:0:0:
432,136,301826,1,0,0:0:0:0:
432,136,301948,1,4,0:3:0:0:
